<?xml version="1.0" standalone="no"?>
<!DOCTYPE svg PUBLIC "-//W3C//DTD SVG 1.1//EN" "http://www.w3.org/Graphics/SVG/1.1/DTD/svg11.dtd" >
<svg xmlns="http://www.w3.org/2000/svg">
<metadata>Generated by IcoMoon</metadata>
<defs>
<font id="stanleybet-icons" horiz-adv-x="512">
<font-face units-per-em="512" ascent="480" descent="-32" />
<missing-glyph horiz-adv-x="512" />
<glyph unicode="&#x20;" d="" horiz-adv-x="256" />
<glyph unicode="&#xe600;" d="M431.714 176q0-1.428-0.286-2-18.286-76.572-76.572-124.143t-136.571-47.572q-41.715 0-80.715 15.714t-69.572 44.857l-36.857-36.857q-5.428-5.428-12.857-5.428t-12.857 5.428-5.428 12.857v128q0 7.428 5.428 12.857t12.857 5.428h128q7.428 0 12.857-5.428t5.429-12.857-5.428-12.857l-39.143-39.143q20.285-18.857 46-29.143t53.429-10.286q38.286 0 71.428 18.572t53.143 51.143q3.143 4.857 15.143 33.428 2.286 6.572 8.572 6.572h54.857q3.714 0 6.428-2.714t2.714-6.428zM438.857 404.571v-128q0-7.429-5.428-12.857t-12.857-5.428h-128q-7.428 0-12.857 5.428t-5.428 12.857 5.428 12.857l39.428 39.428q-42.286 39.143-99.714 39.143-38.286 0-71.428-18.572t-53.143-51.143q-3.143-4.857-15.143-33.428-2.285-6.572-8.572-6.572h-56.857q-3.715 0-6.428 2.714t-2.715 6.428v2q18.572 76.572 77.143 124.143t137.143 47.572q41.714 0 81.143-15.857t70-44.715l37.143 36.857q5.428 5.428 12.857 5.428t12.857-5.428 5.428-12.857z" horiz-adv-x="439" />
<glyph unicode="&#xe601;" d="M146.286 265.143v-164.571q0-4-2.571-6.572t-6.571-2.572h-18.285q-4 0-6.572 2.572t-2.572 6.572v164.571q0 4 2.572 6.572t6.572 2.571h18.285q4 0 6.572-2.571t2.571-6.572zM219.429 265.143v-164.571q0-4-2.571-6.572t-6.572-2.572h-18.286q-4 0-6.572 2.572t-2.571 6.572v164.571q0 4 2.571 6.572t6.572 2.571h18.286q4 0 6.572-2.571t2.571-6.572zM292.572 265.143v-164.571q0-4-2.572-6.572t-6.572-2.572h-18.286q-4 0-6.572 2.572t-2.571 6.572v164.571q0 4 2.571 6.572t6.572 2.571h18.286q4 0 6.572-2.571t2.572-6.572zM329.143 58.286v270.857h-256v-270.857q0-6.286 2-11.572t4.143-7.714 3-2.428h237.715q0.857 0 3 2.428t4.143 7.714 2 11.572zM137.143 365.714h128l-13.714 33.429q-2 2.571-4.857 3.143h-90.571q-2.857-0.572-4.857-3.143zM402.286 356.572v-18.285q0-4-2.572-6.572t-6.572-2.572h-27.428v-270.857q0-23.714-13.428-41t-32.286-17.286h-237.714q-18.857 0-32.285 16.714t-13.428 40.428v272h-27.428q-4 0-6.572 2.571t-2.571 6.572v18.286q0 4 2.571 6.571t6.572 2.572h88.285l20 47.714q4.285 10.572 15.429 18t22.572 7.428h91.428q11.428 0 22.572-7.428t15.428-18l20-47.714h88.286q4 0 6.572-2.572t2.572-6.571z" horiz-adv-x="403" />
<glyph unicode="&#xe602;" d="M292.572 219.429q0 30.286-21.428 51.714t-51.714 21.428-51.714-21.428-21.428-51.714 21.428-51.714 51.714-21.428 51.714 21.428 21.428 51.714zM438.857 250.572v-63.428q0-3.428-2.286-6.572t-5.714-3.714l-52.857-8q-5.428-15.428-11.143-26 10-14.286 30.572-39.428 2.857-3.428 2.857-7.143t-2.572-6.572q-7.714-10.572-28.286-30.857t-26.857-20.286q-3.428 0-7.428 2.572l-39.428 30.857q-12.572-6.572-26-10.857-4.572-38.857-8.286-53.143-2-8-10.286-8h-63.428q-4 0-7 2.428t-3.286 6.143l-8 52.572q-14 4.572-25.714 10.572l-40.285-30.572q-2.857-2.572-7.143-2.572-4 0-7.143 3.143-36 32.572-47.143 48-2 2.857-2 6.572 0 3.428 2.285 6.572 4.285 6 14.572 19t15.428 20.143q-7.715 14.286-11.715 28.286l-52.285 7.714q-3.715 0.572-6 3.572t-2.285 6.714v63.428q0 3.428 2.285 6.572t5.428 3.714l53.143 8q4 13.143 11.143 26.286-11.428 16.286-30.572 39.428-2.857 3.428-2.857 6.857 0 2.857 2.572 6.572 7.428 10.286 28.143 30.714t27 20.428q3.715 0 7.428-2.857l39.428-30.572q12.572 6.572 26 10.857 4.572 38.857 8.286 53.143 2 8 10.286 8h63.428q4 0 7-2.428t3.286-6.143l8-52.571q14-4.572 25.714-10.572l40.572 30.572q2.572 2.571 6.857 2.571 3.714 0 7.143-2.857 36.857-34 47.143-48.572 2-2.286 2-6.286 0-3.428-2.286-6.571-4.286-6-14.572-19t-15.428-20.143q7.428-14.286 11.714-28l52.286-8q3.714-0.571 6-3.571t2.286-6.714z" horiz-adv-x="439" />
<glyph unicode="&#xe603;" d="M477.428 313.714q0-11.428-8-19.428l-245.714-245.714q-8-8-19.428-8t-19.428 8l-142.286 142.285q-8 8-8 19.428t8 19.428l38.857 38.857q8 8 19.428 8t19.428-8l84-84.285 187.429 187.714q8 8 19.428 8t19.428-8l38.857-38.857q8-8 8-19.428z" />
<glyph unicode="&#xe604;" d="M370.857 97.714q0-11.428-8-19.428l-38.857-38.857q-8-8-19.428-8t-19.428 8l-84 84-84-84q-8-8-19.428-8t-19.428 8l-38.857 38.857q-8 8-8 19.428t8 19.428l84 84-84 84q-8 8-8 19.428t8 19.428l38.857 38.857q8 8 19.428 8t19.428-8l84-84 84 84q8 8 19.428 8t19.428-8l38.857-38.857q8-8 8-19.428t-8-19.428l-84-84 84-84q8-8 8-19.428z" horiz-adv-x="403" />
<glyph unicode="&#xe605;" d="M328.286 154.857q0 7.428-5.428 12.857l-51.714 51.714 51.714 51.714q5.428 5.428 5.428 12.857 0 7.714-5.428 13.143l-25.714 25.714q-5.428 5.428-13.143 5.428-7.428 0-12.857-5.428l-51.714-51.714-51.714 51.714q-5.428 5.428-12.857 5.428-7.714 0-13.143-5.428l-25.715-25.714q-5.428-5.428-5.428-13.143 0-7.428 5.428-12.857l51.715-51.714-51.715-51.714q-5.428-5.428-5.428-12.857 0-7.714 5.428-13.143l25.715-25.714q5.428-5.428 13.143-5.428 7.429 0 12.857 5.428l51.714 51.714 51.714-51.714q5.428-5.428 12.857-5.428 7.714 0 13.143 5.428l25.714 25.714q5.428 5.428 5.428 13.143zM438.857 219.429q0-59.714-29.428-110.143t-79.857-79.857-110.143-29.428-110.143 29.428-79.857 79.857-29.428 110.143 29.428 110.143 79.857 79.857 110.143 29.428 110.143-29.428 79.857-79.857 29.428-110.143z" horiz-adv-x="439" />
<glyph unicode="&#xe606;" d="M366.857 265.714q0 8-5.143 13.143l-26 25.715q-5.428 5.428-12.857 5.428t-12.857-5.428l-116.572-116.286-64.572 64.572q-5.428 5.428-12.857 5.428t-12.857-5.428l-26-25.714q-5.143-5.143-5.143-13.143 0-7.714 5.143-12.857l103.428-103.428q5.428-5.428 12.857-5.428 7.714 0 13.143 5.428l155.143 155.143q5.143 5.143 5.143 12.857zM438.857 219.429q0-59.714-29.428-110.143t-79.857-79.857-110.143-29.428-110.143 29.428-79.857 79.857-29.428 110.143 29.428 110.143 79.857 79.857 110.143 29.428 110.143-29.428 79.857-79.857 29.428-110.143z" horiz-adv-x="439" />
<glyph unicode="&#xe607;" d="M212 26l-186.286 186q-10.572 10.572-10.572 25.857t10.572 25.857l186.286 186q10.572 10.571 25.857 10.571t25.857-10.571l21.428-21.429q10.572-10.571 10.572-25.857t-10.572-25.857l-138.857-138.857 138.857-138.571q10.572-10.857 10.572-26t-10.572-25.714l-21.428-21.428q-10.572-10.572-25.857-10.572t-25.857 10.572z" horiz-adv-x="329" />
<glyph unicode="&#xe608;" d="M314 237.714q0-14.857-10.572-26l-186.286-186q-10.572-10.572-25.715-10.572t-25.715 10.572l-21.715 21.428q-10.572 11.143-10.572 26 0 15.143 10.572 25.714l138.857 138.857-138.857 138.572q-10.572 11.143-10.572 26 0 15.143 10.572 25.714l21.715 21.428q10.285 10.857 25.715 10.857t25.715-10.857l186.286-186q10.572-10.571 10.572-25.714z" horiz-adv-x="329" />
<glyph unicode="&#xe609;" d="M347.428 201.143v36.572q0 7.428-5.428 12.857t-12.857 5.429h-73.143v73.143q0 7.429-5.428 12.857t-12.857 5.428h-36.571q-7.428 0-12.857-5.428t-5.429-12.857v-73.143h-73.143q-7.428 0-12.857-5.428t-5.428-12.857v-36.571q0-7.428 5.428-12.857t12.857-5.428h73.143v-73.143q0-7.428 5.428-12.857t12.857-5.428h36.571q7.428 0 12.857 5.428t5.429 12.857v73.143h73.143q7.428 0 12.857 5.428t5.428 12.857zM438.857 219.429q0-59.714-29.428-110.143t-79.857-79.857-110.143-29.428-110.143 29.428-79.857 79.857-29.428 110.143 29.428 110.143 79.857 79.857 110.143 29.428 110.143-29.428 79.857-79.857 29.428-110.143z" horiz-adv-x="439" />
<glyph unicode="&#xe60a;" d="M347.428 201.143v36.572q0 7.428-5.428 12.857t-12.857 5.429h-219.429q-7.428 0-12.857-5.428t-5.428-12.857v-36.571q0-7.428 5.428-12.857t12.857-5.428h219.429q7.428 0 12.857 5.428t5.428 12.857zM438.857 219.429q0-59.714-29.428-110.143t-79.857-79.857-110.143-29.428-110.143 29.428-79.857 79.857-29.428 110.143 29.428 110.143 79.857 79.857 110.143 29.428 110.143-29.428 79.857-79.857 29.428-110.143z" horiz-adv-x="439" />
<glyph unicode="&#xe60b;" d="M313.428 167.143l-41.714-41.714q-2.857-2.857-6.572-2.857t-6.572 2.857l-39.143 39.143-39.143-39.143q-2.857-2.857-6.572-2.857t-6.572 2.857l-41.715 41.714q-2.857 2.857-2.857 6.572t2.857 6.572l39.143 39.143-39.143 39.143q-2.857 2.857-2.857 6.572t2.857 6.572l41.715 41.714q2.857 2.857 6.572 2.857t6.572-2.857l39.143-39.143 39.143 39.143q2.857 2.857 6.572 2.857t6.572-2.857l41.714-41.714q2.857-2.857 2.857-6.572t-2.857-6.572l-39.143-39.143 39.143-39.143q2.857-2.857 2.857-6.572t-2.857-6.572zM374.857 219.429q0 42.286-20.857 78t-56.572 56.572-78 20.857-78-20.857-56.572-56.572-20.857-78 20.857-78 56.572-56.572 78-20.857 78 20.857 56.572 56.572 20.857 78zM438.857 219.429q0-59.714-29.428-110.143t-79.857-79.857-110.143-29.428-110.143 29.428-79.857 79.857-29.428 110.143 29.428 110.143 79.857 79.857 110.143 29.428 110.143-29.428 79.857-79.857 29.428-110.143z" horiz-adv-x="439" />
<glyph unicode="&#xe60c;" d="M334.572 243.143l-120.572-120.572q-5.428-5.428-12.857-5.428t-12.857 5.428l-84 84q-5.428 5.428-5.428 12.857t5.428 12.857l29.143 29.143q5.429 5.428 12.857 5.428t12.857-5.428l42-42 78.571 78.572q5.428 5.428 12.857 5.428t12.857-5.428l29.143-29.143q5.428-5.428 5.428-12.857t-5.428-12.857zM374.857 219.429q0 42.286-20.857 78t-56.572 56.572-78 20.857-78-20.857-56.572-56.572-20.857-78 20.857-78 56.572-56.572 78-20.857 78 20.857 56.572 56.572 20.857 78zM438.857 219.429q0-59.714-29.428-110.143t-79.857-79.857-110.143-29.428-110.143 29.428-79.857 79.857-29.428 110.143 29.428 110.143 79.857 79.857 110.143 29.428 110.143-29.428 79.857-79.857 29.428-110.143z" horiz-adv-x="439" />
<glyph unicode="&#xe60d;" d="M329.143 246.857v-18.285q0-4-2.572-6.572t-6.572-2.572h-237.714q-4 0-6.572 2.572t-2.572 6.572v18.286q0 4 2.572 6.572t6.572 2.571h237.714q4 0 6.572-2.571t2.572-6.572zM365.714 118.857v237.714q0 18.857-13.428 32.286t-32.286 13.428h-237.714q-18.857 0-32.285-13.428t-13.428-32.286v-237.714q0-18.857 13.428-32.286t32.285-13.428h237.714q18.857 0 32.286 13.428t13.428 32.286zM402.286 356.572v-237.714q0-34-24.143-58.143t-58.143-24.143h-237.714q-34 0-58.143 24.143t-24.143 58.143v237.714q0 34 24.143 58.143t58.143 24.143h237.714q34 0 58.143-24.143t24.143-58.143z" horiz-adv-x="403" />
<glyph unicode="&#xe60e;" d="M365.714 201.143v36.572q0 7.428-5.428 12.857t-12.857 5.429h-256q-7.428 0-12.857-5.428t-5.428-12.857v-36.571q0-7.428 5.428-12.857t12.857-5.428h256q7.428 0 12.857 5.428t5.428 12.857zM438.857 356.572v-274.286q0-34-24.143-58.143t-58.143-24.143h-274.286q-34 0-58.143 24.143t-24.143 58.143v274.286q0 34 24.143 58.143t58.143 24.143h274.286q34 0 58.143-24.143t24.143-58.143z" horiz-adv-x="439" />
<glyph unicode="&#xe60f;" d="M402.286 209.714v-90.857q0-34-24.143-58.143t-58.143-24.143h-237.714q-34 0-58.143 24.143t-24.143 58.143v237.714q0 34 24.143 58.143t58.143 24.143h237.714q18 0 33.428-7.143 4.286-2 5.143-6.572 0.857-4.857-2.572-8.285l-14-14q-2.857-2.857-6.572-2.857-0.857 0-2.572 0.572-6.572 1.714-12.857 1.714h-237.714q-18.857 0-32.285-13.428t-13.428-32.286v-237.714q0-18.857 13.428-32.286t32.285-13.428h237.714q18.857 0 32.286 13.428t13.428 32.286v72.572q0 3.714 2.572 6.286l18.286 18.286q2.857 2.857 6.572 2.857 1.714 0 3.428-0.857 5.714-2.286 5.714-8.286zM468.286 349.429l-232.571-232.572q-6.857-6.857-16.285-6.857t-16.286 6.857l-122.857 122.857q-6.857 6.857-6.857 16.286t6.857 16.286l31.428 31.428q6.857 6.857 16.285 6.857t16.285-6.857l75.143-75.143 184.857 184.857q6.857 6.857 16.286 6.857t16.286-6.857l31.428-31.429q6.857-6.857 6.857-16.285t-6.857-16.286z" horiz-adv-x="476" />
<glyph unicode="&#xe610;" d="M36.572 0h82.285v82.286h-82.285v-82.286zM137.143 0h91.429v82.286h-91.428v-82.286zM36.572 100.572h82.285v91.428h-82.285v-91.428zM137.143 100.572h91.429v91.428h-91.428v-91.428zM36.572 210.286h82.285v82.286h-82.285v-82.286zM246.857 0h91.429v82.286h-91.428v-82.286zM137.143 210.286h91.429v82.286h-91.428v-82.286zM356.572 0h82.286v82.286h-82.286v-82.286zM246.857 100.572h91.429v91.428h-91.428v-91.428zM146.286 347.429v82.285q0 3.715-2.714 6.429t-6.428 2.714h-18.285q-3.715 0-6.428-2.714t-2.715-6.429v-82.285q0-3.714 2.715-6.428t6.428-2.714h18.285q3.714 0 6.428 2.714t2.714 6.428zM356.572 100.572h82.286v91.428h-82.286v-91.428zM246.857 210.286h91.429v82.286h-91.428v-82.286zM356.572 210.286h82.286v82.286h-82.286v-82.286zM365.714 347.429v82.285q0 3.715-2.714 6.429t-6.428 2.714h-18.286q-3.714 0-6.428-2.714t-2.714-6.429v-82.285q0-3.714 2.714-6.428t6.428-2.714h18.286q3.714 0 6.428 2.714t2.714 6.428zM475.428 365.714v-365.714q0-14.857-10.857-25.714t-25.714-10.857h-402.286q-14.857 0-25.715 10.857t-10.857 25.714v365.714q0 14.857 10.857 25.714t25.715 10.857h36.572v27.428q0 18.857 13.428 32.285t32.285 13.429h18.285q18.857 0 32.285-13.429t13.428-32.285v-27.428h109.714v27.428q0 18.857 13.428 32.285t32.286 13.429h18.286q18.857 0 32.286-13.429t13.428-32.285v-27.428h36.572q14.857 0 25.714-10.857t10.857-25.714z" horiz-adv-x="476" />
<glyph unicode="&#xe611;" d="M338.286 219.429q0-7.428-5.428-12.857l-155.429-155.428q-5.429-5.428-12.857-5.428t-12.857 5.428-5.429 12.857v82.286h-128q-7.428 0-12.857 5.428t-5.428 12.857v109.714q0 7.428 5.428 12.857t12.857 5.429h128v82.285q0 7.429 5.428 12.857t12.857 5.428 12.857-5.428l155.428-155.428q5.428-5.428 5.428-12.857zM438.857 320v-201.143q0-34-24.143-58.143t-58.143-24.143h-91.428q-3.714 0-6.428 2.714t-2.714 6.428q0 1.143-0.286 5.714t-0.143 7.572 0.857 6.714 2.857 5.572 5.857 1.857h91.428q18.857 0 32.286 13.428t13.428 32.286v201.143q0 18.857-13.428 32.286t-32.286 13.428h-89.143t-3.286 0.286-3.286 0.857-2.286 1.572-2 2.572-0.572 3.857q0 1.143-0.286 5.715t-0.143 7.572 0.857 6.714 2.857 5.571 5.857 1.857h91.428q34 0 58.143-24.143t24.143-58.143z" horiz-adv-x="439" />
<glyph unicode="&#xe612;" d="M195.714 104.286l175.429 175.428q5.428 5.429 5.428 12.857t-5.428 12.857l-29.143 29.143q-5.428 5.428-12.857 5.428t-12.857-5.428l-133.429-133.428-60.285 60.286q-5.428 5.428-12.857 5.428t-12.857-5.428l-29.143-29.143q-5.428-5.428-5.428-12.857t5.428-12.857l102.285-102.286q5.428-5.428 12.857-5.428t12.857 5.428zM438.857 356.572v-274.286q0-34-24.143-58.143t-58.143-24.143h-274.286q-34 0-58.143 24.143t-24.143 58.143v274.286q0 34 24.143 58.143t58.143 24.143h274.286q34 0 58.143-24.143t24.143-58.143z" horiz-adv-x="439" />
<glyph unicode="&#xe613;" d="M365.714 201.143v36.572q0 7.428-5.428 12.857t-12.857 5.429h-91.428v91.428q0 7.428-5.428 12.857t-12.857 5.429h-36.571q-7.428 0-12.857-5.429t-5.429-12.857v-91.428h-91.428q-7.428 0-12.857-5.428t-5.428-12.857v-36.571q0-7.428 5.428-12.857t12.857-5.428h91.428v-91.428q0-7.428 5.428-12.857t12.857-5.428h36.571q7.428 0 12.857 5.428t5.429 12.857v91.428h91.428q7.428 0 12.857 5.428t5.428 12.857zM438.857 356.572v-274.286q0-34-24.143-58.143t-58.143-24.143h-274.286q-34 0-58.143 24.143t-24.143 58.143v274.286q0 34 24.143 58.143t58.143 24.143h274.286q34 0 58.143-24.143t24.143-58.143z" horiz-adv-x="439" />
<glyph unicode="&#xe614;" d="M324.857 188.572l87.428 84.857-120.572 17.715-54 109.143-54-109.143-120.572-17.714 87.428-84.857-20.857-120.286 108 56.857 107.714-56.857zM475.428 290.572q0-6.286-7.428-13.714l-103.714-101.143 24.572-142.857q0.286-2 0.286-5.714 0-14.286-11.714-14.286-5.428 0-11.428 3.428l-128.286 67.428-128.286-67.428q-6.285-3.428-11.428-3.428-6 0-9 4.143t-3 10.143q0 1.714 0.572 5.714l24.572 142.857-104 101.143q-7.143 7.714-7.143 13.714 0 10.572 16 13.143l143.428 20.857 64.286 130q5.428 11.714 14 11.714t14-11.714l64.286-130 143.429-20.857q16-2.572 16-13.143z" horiz-adv-x="476" />
<glyph unicode="&#xe615;" d="M475.428 290.572q0-6.286-7.428-13.714l-103.714-101.143 24.572-142.857q0.286-2 0.286-5.714 0-6-3-10.143t-8.714-4.143q-5.428 0-11.428 3.428l-128.286 67.428-128.286-67.428q-6.285-3.428-11.428-3.428-6 0-9 4.143t-3 10.143q0 1.714 0.572 5.714l24.572 142.857-104 101.143q-7.143 7.714-7.143 13.714 0 10.572 16 13.143l143.428 20.857 64.286 130q5.428 11.714 14 11.714t14-11.714l64.286-130 143.429-20.857q16-2.572 16-13.143z" horiz-adv-x="476" />
<glyph unicode="&#xe616;" d="M402.286 74q0-34.286-20.857-54.143t-55.428-19.857h-249.714q-34.572 0-55.428 19.857t-20.857 54.143q0 15.143 1 29.572t4 31.143 7.572 31 12.285 27.857 17.715 23.143 24.428 15.286 31.857 5.714q2.572 0 12-6.143t21.285-13.714 30.857-13.714 38.143-6.143 38.143 6.143 30.857 13.714 21.286 13.714 12 6.143q17.428 0 31.857-5.714t24.428-15.285 17.714-23.143 12.286-27.857 7.572-31 4-31.143 1-29.572zM310.857 329.143q0-45.428-32.143-77.572t-77.572-32.143-77.572 32.143-32.143 77.572 32.143 77.571 77.572 32.143 77.572-32.143 32.143-77.571z" horiz-adv-x="403" />
<glyph unicode="&#xe617;" d="M460.286 128q0-15.143-10.572-25.714l-21.428-21.428q-10.857-10.857-26-10.857-15.428 0-25.714 10.857l-138.857 138.572-138.857-138.572q-10.285-10.857-25.715-10.857t-25.715 10.857l-21.428 21.428q-10.857 10.286-10.857 25.714 0 15.143 10.857 26l186 186q10.572 10.571 25.714 10.571 14.857 0 26-10.571l185.714-186q10.857-10.857 10.857-26z" horiz-adv-x="476" />
<glyph unicode="&#xe618;" d="M460.286 274.286q0-15.143-10.572-25.714l-186-186q-10.857-10.857-26-10.857-15.428 0-25.714 10.857l-186 186q-10.857 10.286-10.857 25.714 0 15.143 10.857 26l21.143 21.428q11.143 10.572 26 10.572 15.143 0 25.715-10.572l138.857-138.857 138.857 138.857q10.572 10.572 25.714 10.572 14.857 0 26-10.572l21.428-21.428q10.572-11.143 10.572-26z" horiz-adv-x="476" />
<glyph unicode="&#xe619;" d="M402.286 265.143v-54.857q0-11.428-8-19.428t-19.428-8h-118.857v-118.857q0-11.428-8-19.428t-19.428-8h-54.857q-11.429 0-19.429 8t-8 19.428v118.857h-118.857q-11.428 0-19.428 8t-8 19.428v54.857q0 11.429 8 19.429t19.428 8h118.857v118.857q0 11.429 8 19.429t19.428 8h54.857q11.429 0 19.429-8t8-19.429v-118.857h118.857q11.428 0 19.428-8t8-19.428z" horiz-adv-x="403" />
<glyph unicode="&#xe61a;" d="M402.286 265.143v-54.857q0-11.428-8-19.428t-19.428-8h-347.428q-11.428 0-19.428 8t-8 19.428v54.857q0 11.429 8 19.429t19.428 8h347.428q11.428 0 19.428-8t8-19.428z" horiz-adv-x="403" />
<glyph unicode="&#xe61b;" d="M402.286-9.143v-18.286q0-3.714-2.714-6.429t-6.428-2.714h-384q-3.715 0-6.428 2.714t-2.715 6.429v18.286q0 3.714 2.715 6.428t6.428 2.714h384q3.714 0 6.428-2.714t2.714-6.428zM329.143 292.572q0-22.285-7-41.143t-18.286-32.143-25-25.143-27.428-22.143-25-20.572-18.286-23.286-7-27.572q0-27.428 19.143-64l-1.143 0.286 0.286-0.286q-25.714 11.714-45.714 23.714t-39.572 28.572-32.428 35-20.715 43-7.857 52.572q0 22.286 7 41.143t18.285 32.143 25 25.143 27.428 22.143 25 20.572 18.286 23.285 7 27.572q0 26.857-18.857 64l0.857-0.286-0.286 0.286q25.714-11.714 45.714-23.714t39.572-28.572 32.428-35 20.714-43 7.857-52.572z" horiz-adv-x="403" />
<glyph unicode="&#xe61c;" d="M219.429 438.857q59.715 0 110.143-29.428t79.857-79.857 29.428-110.143-29.428-110.143-79.857-79.857-110.143-29.428-110.143 29.428-79.857 79.857-29.428 110.143 29.428 110.143 79.857 79.857 110.143 29.428zM256 82.572v54.286q0 4-2.571 6.714t-6.286 2.714h-54.857q-3.714 0-6.572-2.857t-2.857-6.572v-54.286q0-3.714 2.857-6.572t6.572-2.857h54.857q3.714 0 6.286 2.714t2.571 6.714zM255.429 180.857l5.143 177.428q0 3.428-2.857 5.143-2.857 2.285-6.857 2.285h-62.857q-4 0-6.857-2.285-2.857-1.715-2.857-5.143l4.857-177.428q0-2.857 2.857-5t6.857-2.143h52.857q4 0 6.714 2.143t3 5z" horiz-adv-x="439" />
<glyph unicode="&#xe61d;" d="M292.572 82.286v45.714q0 4-2.572 6.572t-6.572 2.572h-27.428v146.286q0 4-2.571 6.572t-6.571 2.571h-91.428q-4 0-6.572-2.571t-2.571-6.572v-45.714q0-4 2.571-6.572t6.572-2.572h27.428v-91.428h-27.428q-4 0-6.572-2.572t-2.571-6.572v-45.714q0-4 2.571-6.572t6.572-2.572h128q4 0 6.572 2.572t2.572 6.572zM256 338.286v45.715q0 4-2.571 6.571t-6.571 2.572h-54.857q-4 0-6.571-2.572t-2.571-6.571v-45.715q0-4 2.571-6.571t6.572-2.572h54.857q4 0 6.571 2.572t2.572 6.572zM438.857 219.429q0-59.714-29.428-110.143t-79.857-79.857-110.143-29.428-110.143 29.428-79.857 79.857-29.428 110.143 29.428 110.143 79.857 79.857 110.143 29.428 110.143-29.428 79.857-79.857 29.428-110.143z" horiz-adv-x="439" />
<glyph unicode="&#xe61e;" d="M256 82.286v54.857q0 4-2.571 6.572t-6.571 2.572h-54.857q-4 0-6.571-2.572t-2.571-6.572v-54.857q0-4 2.571-6.572t6.572-2.572h54.857q4 0 6.571 2.572t2.572 6.572zM329.143 274.286q0 25.143-15.857 46.572t-39.572 33.143-48.572 11.714q-69.428 0-106-60.857-4.285-6.857 2.285-12l37.715-28.572q2-1.714 5.428-1.714 4.572 0 7.143 3.428 15.143 19.429 24.571 26.286 9.714 6.857 24.572 6.857 13.714 0 24.428-7.428t10.714-16.857q0-10.857-5.714-17.428t-19.428-12.857q-18-8-33-24.714t-15-35.857v-10.286q0-4 2.571-6.572t6.571-2.572h54.857q4 0 6.571 2.572t2.572 6.572q0 5.428 6.143 14.143t15.572 14.143q9.143 5.143 14 8.143t13.143 10 12.714 13.714 8 17.286 3.572 23.143zM438.857 219.429q0-59.714-29.428-110.143t-79.857-79.857-110.143-29.428-110.143 29.428-79.857 79.857-29.428 110.143 29.428 110.143 79.857 79.857 110.143 29.428 110.143-29.428 79.857-79.857 29.428-110.143z" horiz-adv-x="439" />
<glyph unicode="&#xe61f;" d="M146.286 182.857v-109.714h-73.143v109.714h73.143zM256 329.143v-256h-73.143v256h73.143zM365.714 256v-182.857h-73.143v182.857h73.143zM475.428 365.714v-292.571h-73.143v292.572h73.143zM512 45.714v347.428q0 3.714-2.714 6.428t-6.428 2.714h-457.143q-3.715 0-6.428-2.714t-2.715-6.428v-347.428q0-3.714 2.715-6.428t6.428-2.714h457.143q3.714 0 6.428 2.714t2.714 6.428zM548.572 393.143v-347.428q0-18.857-13.428-32.286t-32.286-13.428h-457.143q-18.857 0-32.285 13.428t-13.428 32.286v347.428q0 18.857 13.428 32.286t32.285 13.428h457.143q18.857 0 32.286-13.428t13.428-32.286z" horiz-adv-x="549" />
<glyph unicode="&#xe620;" d="M12.857 3.714q-5.428-5.428-9.143-3.714t-3.715 9.143v420.572q0 7.428 3.715 9.143t9.143-3.714l202.857-202.857q2.286-2.286 3.714-5.428v193.714q0 7.428 5.428 12.857t12.857 5.429h36.571q7.428 0 12.857-5.429t5.428-12.857v-402.286q0-7.428-5.428-12.857t-12.857-5.428h-36.572q-7.428 0-12.857 5.428t-5.429 12.857v193.714q-1.429-2.857-3.714-5.428z" horiz-adv-x="293" />
<glyph unicode="&#xe621;" d="M279.714 435.143q5.428 5.428 9.143 3.714t3.714-9.143v-420.572q0-7.428-3.714-9.143t-9.143 3.714l-202.857 202.857q-2.572 2.572-3.715 5.428v-193.714q0-7.428-5.428-12.857t-12.857-5.428h-36.572q-7.428 0-12.857 5.428t-5.428 12.857v402.286q0 7.428 5.428 12.857t12.857 5.429h36.572q7.428 0 12.857-5.429t5.428-12.857v-193.714q1.143 3.143 3.715 5.428z" horiz-adv-x="293" />
<glyph unicode="&#xe622;" d="M462.572 435.143q5.428 5.428 9.143 3.714t3.714-9.143v-420.572q0-7.428-3.714-9.143t-9.143 3.714l-202.857 202.857q-2.286 2.572-3.714 5.428v-202.857q0-7.428-3.714-9.143t-9.143 3.714l-202.857 202.857q-5.428 5.428-5.428 12.857t5.428 12.857l202.857 202.857q5.429 5.429 9.143 3.714t3.714-9.143v-202.857q1.428 3.143 3.714 5.428z" horiz-adv-x="476" />
<glyph unicode="&#xe623;" d="M12.857 3.714q-5.428-5.428-9.143-3.714t-3.715 9.143v420.572q0 7.428 3.715 9.143t9.143-3.714l202.857-202.857q2.286-2.286 3.714-5.428v202.857q0 7.428 3.714 9.143t9.143-3.715l202.857-202.857q5.428-5.428 5.428-12.857t-5.428-12.857l-202.857-202.857q-5.429-5.428-9.143-3.714t-3.714 9.143v202.857q-1.429-2.857-3.714-5.428z" horiz-adv-x="476" />
<glyph unicode="&#xe624;" d="M182.857 64q0-1.143 0.286-5.714t0.143-7.572-0.857-6.714-2.857-5.572-5.857-1.857h-91.428q-34 0-58.143 24.143t-24.143 58.143v201.143q0 34 24.143 58.143t58.143 24.143h91.428q3.714 0 6.429-2.714t2.714-6.428q0-1.143 0.286-5.714t0.143-7.572-0.857-6.715-2.857-5.571-5.857-1.857h-91.428q-18.857 0-32.285-13.428t-13.428-32.286v-201.143q0-18.857 13.428-32.286t32.285-13.428h89.142t3.286-0.286 3.286-0.857 2.286-1.572 2-2.572 0.571-3.857zM448 219.429q0-7.428-5.428-12.857l-155.428-155.428q-5.428-5.428-12.857-5.428t-12.857 5.428-5.428 12.857v82.286h-128q-7.428 0-12.857 5.428t-5.428 12.857v109.714q0 7.428 5.428 12.857t12.857 5.429h128v82.285q0 7.429 5.428 12.857t12.857 5.428 12.857-5.428l155.428-155.428q5.428-5.428 5.428-12.857z" horiz-adv-x="476" />
<glyph unicode="&#xe625;" d="M146.286 82.286v54.857q0 4-2.571 6.572t-6.571 2.572h-91.428q-4 0-6.572-2.572t-2.572-6.572v-54.857q0-4 2.572-6.572t6.572-2.572h91.428q4 0 6.572 2.572t2.571 6.572zM146.286 192v54.857q0 4-2.571 6.572t-6.571 2.571h-91.428q-4 0-6.572-2.571t-2.572-6.572v-54.857q0-4 2.572-6.572t6.572-2.572h91.428q4 0 6.572 2.572t2.571 6.572zM292.572 82.286v54.857q0 4-2.572 6.572t-6.572 2.572h-91.428q-4 0-6.572-2.572t-2.571-6.572v-54.857q0-4 2.571-6.572t6.572-2.572h91.428q4 0 6.572 2.572t2.572 6.572zM146.286 301.714v54.857q0 4-2.571 6.572t-6.571 2.572h-91.428q-4 0-6.572-2.572t-2.572-6.572v-54.857q0-4 2.572-6.572t6.572-2.572h91.428q4 0 6.572 2.572t2.571 6.572zM292.572 192v54.857q0 4-2.572 6.572t-6.572 2.571h-91.428q-4 0-6.572-2.571t-2.571-6.572v-54.857q0-4 2.571-6.572t6.572-2.572h91.428q4 0 6.572 2.572t2.572 6.572zM438.857 82.286v54.857q0 4-2.572 6.572t-6.572 2.572h-91.428q-4 0-6.572-2.572t-2.572-6.572v-54.857q0-4 2.572-6.572t6.572-2.572h91.428q4 0 6.572 2.572t2.572 6.572zM292.572 301.714v54.857q0 4-2.572 6.572t-6.572 2.572h-91.428q-4 0-6.572-2.572t-2.571-6.572v-54.857q0-4 2.571-6.572t6.572-2.572h91.428q4 0 6.572 2.572t2.572 6.572zM438.857 192v54.857q0 4-2.572 6.572t-6.572 2.571h-91.428q-4 0-6.572-2.571t-2.572-6.572v-54.857q0-4 2.572-6.572t6.572-2.572h91.428q4 0 6.572 2.572t2.572 6.572zM438.857 301.714v54.857q0 4-2.572 6.572t-6.572 2.572h-91.428q-4 0-6.572-2.572t-2.572-6.572v-54.857q0-4 2.572-6.572t6.572-2.572h91.428q4 0 6.572 2.572t2.572 6.572zM475.428 393.143v-310.857q0-18.857-13.428-32.286t-32.286-13.428h-384q-18.857 0-32.285 13.428t-13.428 32.286v310.857q0 18.857 13.428 32.286t32.285 13.428h384q18.857 0 32.286-13.428t13.428-32.286z" horiz-adv-x="476" />
<glyph unicode="&#xe626;" d="M438.857 219.429q0-59.714-29.428-110.143t-79.857-79.857-110.143-29.428-110.143 29.428-79.857 79.857-29.428 110.143 29.428 110.143 79.857 79.857 110.143 29.428 110.143-29.428 79.857-79.857 29.428-110.143z" horiz-adv-x="439" />
<glyph unicode="&#xe627;" d="M329.143 237.714q0 52.857-37.572 90.428t-90.428 37.571-90.428-37.571-37.572-90.428 37.572-90.428 90.428-37.572 90.428 37.572 37.572 90.428zM475.428 0q0-14.857-10.857-25.714t-25.714-10.857q-15.428 0-25.714 10.857l-98 97.714q-51.143-35.428-114-35.428-40.857 0-78.143 15.857t-64.285 42.857-42.857 64.286-15.857 78.143 15.857 78.143 42.857 64.285 64.285 42.857 78.143 15.857 78.143-15.857 64.286-42.857 42.857-64.285 15.857-78.143q0-62.857-35.428-114l98-98q10.572-10.572 10.572-25.714z" horiz-adv-x="476" />
<glyph unicode="&#xe628;" d="M512 91.429v-36.572q0-7.428-5.428-12.857t-12.857-5.428h-475.428q-7.428 0-12.857 5.428t-5.428 12.857v36.572q0 7.428 5.428 12.857t12.857 5.428h475.428q7.428 0 12.857-5.428t5.428-12.857zM512 201.143v-36.572q0-7.428-5.428-12.857t-12.857-5.428h-475.428q-7.428 0-12.857 5.428t-5.428 12.857v36.572q0 7.428 5.428 12.857t12.857 5.428h475.428q7.428 0 12.857-5.428t5.428-12.857zM512 310.857v-36.571q0-7.428-5.428-12.857t-12.857-5.428h-475.428q-7.428 0-12.857 5.428t-5.428 12.857v36.572q0 7.428 5.428 12.857t12.857 5.429h475.428q7.428 0 12.857-5.428t5.428-12.857zM512 420.572v-36.571q0-7.429-5.428-12.857t-12.857-5.428h-475.428q-7.428 0-12.857 5.428t-5.428 12.857v36.571q0 7.429 5.428 12.857t12.857 5.428h475.428q7.428 0 12.857-5.428t5.428-12.857z" />
<glyph unicode="&#xe629;" d="M292.572 274.286q0-7.428-5.428-12.857l-128-128q-5.428-5.428-12.857-5.428t-12.857 5.428l-128 128q-5.428 5.428-5.428 12.857t5.428 12.857 12.857 5.428h256q7.428 0 12.857-5.428t5.428-12.857z" horiz-adv-x="293" />
<glyph unicode="&#xe62a;" d="M292.572 128q0-7.428-5.428-12.857t-12.857-5.428h-256q-7.428 0-12.857 5.428t-5.428 12.857 5.428 12.857l128 128q5.429 5.428 12.857 5.428t12.857-5.428l128-128q5.428-5.428 5.428-12.857z" horiz-adv-x="293" />
<glyph unicode="&#xe62b;" d="M219.429 374.857q-42.285 0-78-20.857t-56.572-56.572-20.857-78 20.857-78 56.572-56.572 78-20.857 78 20.857 56.572 56.572 20.857 78-20.857 78-56.572 56.572-78 20.857zM438.857 219.429q0-59.714-29.428-110.143t-79.857-79.857-110.143-29.428-110.143 29.428-79.857 79.857-29.428 110.143 29.428 110.143 79.857 79.857 110.143 29.428 110.143-29.428 79.857-79.857 29.428-110.143z" horiz-adv-x="439" />
<glyph unicode="&#xe62c;" d="M179.143 82.286q0-3.714-2.857-6.572l-14.286-14.286q-2.857-2.857-6.572-2.857t-6.572 2.857l-133.143 133.143q-2.857 2.857-2.857 6.572t2.857 6.572l133.143 133.143q2.857 2.857 6.572 2.857t6.572-2.857l14.286-14.286q2.857-2.857 2.857-6.571t-2.857-6.572l-112.285-112.286 112.285-112.286q2.857-2.857 2.857-6.572zM288.857 82.286q0-3.714-2.857-6.572l-14.286-14.286q-2.857-2.857-6.572-2.857t-6.572 2.857l-133.143 133.143q-2.857 2.857-2.857 6.572t2.857 6.572l133.143 133.143q2.857 2.857 6.572 2.857t6.572-2.857l14.286-14.286q2.857-2.857 2.857-6.571t-2.857-6.572l-112.286-112.286 112.286-112.286q2.857-2.857 2.857-6.572z" horiz-adv-x="293" />
<glyph unicode="&#xe62d;" d="M170 201.143q0-3.714-2.857-6.572l-133.143-133.143q-2.857-2.857-6.572-2.857t-6.572 2.857l-14.286 14.286q-2.857 2.857-2.857 6.572t2.857 6.572l112.285 112.286-112.285 112.286q-2.857 2.857-2.857 6.572t2.857 6.572l14.285 14.286q2.857 2.857 6.572 2.857t6.572-2.857l133.143-133.143q2.857-2.857 2.857-6.572zM279.714 201.143q0-3.714-2.857-6.572l-133.143-133.143q-2.857-2.857-6.571-2.857t-6.572 2.857l-14.285 14.286q-2.857 2.857-2.857 6.572t2.857 6.572l112.285 112.286-112.285 112.286q-2.857 2.857-2.857 6.572t2.857 6.572l14.285 14.286q2.857 2.857 6.572 2.857t6.572-2.857l133.143-133.143q2.857-2.857 2.857-6.572z" horiz-adv-x="293" />
<glyph unicode="&#xe62e;" d="M307.143 100.572q0-3.714-2.857-6.572l-14.286-14.286q-2.857-2.857-6.572-2.857t-6.572 2.857l-112.286 112.286-112.285-112.286q-2.857-2.857-6.572-2.857t-6.572 2.857l-14.285 14.286q-2.857 2.857-2.857 6.572t2.857 6.572l133.143 133.143q2.857 2.857 6.571 2.857t6.572-2.857l133.143-133.143q2.857-2.857 2.857-6.572zM307.143 210.286q0-3.714-2.857-6.572l-14.286-14.286q-2.857-2.857-6.572-2.857t-6.572 2.857l-112.286 112.286-112.285-112.286q-2.857-2.857-6.572-2.857t-6.572 2.857l-14.285 14.286q-2.857 2.857-2.857 6.572t2.857 6.572l133.143 133.143q2.857 2.857 6.571 2.857t6.572-2.857l133.143-133.143q2.857-2.857 2.857-6.572z" horiz-adv-x="329" />
<glyph unicode="&#xe62f;" d="M307.143 228.572q0-3.714-2.857-6.571l-133.143-133.143q-2.857-2.857-6.571-2.857t-6.572 2.857l-133.143 133.143q-2.857 2.857-2.857 6.572t2.857 6.572l14.285 14.286q2.857 2.857 6.572 2.857t6.572-2.857l112.285-112.286 112.285 112.286q2.857 2.857 6.572 2.857t6.572-2.857l14.286-14.286q2.857-2.857 2.857-6.572zM307.143 338.286q0-3.714-2.857-6.571l-133.143-133.143q-2.857-2.857-6.571-2.857t-6.572 2.857l-133.143 133.143q-2.857 2.857-2.857 6.572t2.857 6.572l14.285 14.286q2.857 2.857 6.572 2.857t6.572-2.857l112.285-112.286 112.285 112.286q2.857 2.857 6.572 2.857t6.572-2.857l14.286-14.286q2.857-2.857 2.857-6.572z" horiz-adv-x="329" />
<glyph unicode="&#xe630;" d="M179.143 320q0-3.714-2.857-6.571l-112.285-112.286 112.285-112.286q2.857-2.857 2.857-6.572t-2.857-6.572l-14.286-14.286q-2.857-2.857-6.572-2.857t-6.572 2.857l-133.143 133.143q-2.857 2.857-2.857 6.572t2.857 6.572l133.143 133.143q2.857 2.857 6.572 2.857t6.572-2.857l14.286-14.286q2.857-2.857 2.857-6.571z" horiz-adv-x="183" />
<glyph unicode="&#xe631;" d="M170 201.143q0-3.714-2.857-6.572l-133.143-133.143q-2.857-2.857-6.572-2.857t-6.572 2.857l-14.286 14.286q-2.857 2.857-2.857 6.572t2.857 6.572l112.285 112.286-112.285 112.286q-2.857 2.857-2.857 6.572t2.857 6.572l14.285 14.286q2.857 2.857 6.572 2.857t6.572-2.857l133.143-133.143q2.857-2.857 2.857-6.572z" horiz-adv-x="183" />
<glyph unicode="&#xe632;" d="M307.143 137.143q0-3.714-2.857-6.572l-14.286-14.286q-2.857-2.857-6.572-2.857t-6.572 2.857l-112.286 112.286-112.285-112.286q-2.857-2.857-6.572-2.857t-6.572 2.857l-14.285 14.286q-2.857 2.857-2.857 6.572t2.857 6.572l133.143 133.143q2.857 2.857 6.571 2.857t6.572-2.857l133.143-133.143q2.857-2.857 2.857-6.572z" horiz-adv-x="329" />
<glyph unicode="&#xe633;" d="M307.143 265.143q0-3.714-2.857-6.572l-133.143-133.143q-2.857-2.857-6.571-2.857t-6.572 2.857l-133.143 133.143q-2.857 2.857-2.857 6.572t2.857 6.572l14.285 14.286q2.857 2.857 6.572 2.857t6.572-2.857l112.285-112.286 112.285 112.286q2.857 2.857 6.572 2.857t6.572-2.857l14.286-14.286q2.857-2.857 2.857-6.572z" horiz-adv-x="329" />
<glyph unicode="&#xe634;" d="M253.714 137.143l33.143 33.143-43.428 43.428-33.143-33.143v-16h27.429v-27.428h16zM379.428 342.857q-4.572 4.572-9.428-0.286l-100-100q-4.857-4.857-0.286-9.428t9.428 0.286l100 100q4.857 4.857 0.286 9.428zM402.286 173.143v-54.286q0-34-24.143-58.143t-58.143-24.143h-237.714q-34 0-58.143 24.143t-24.143 58.143v237.714q0 34 24.143 58.143t58.143 24.143h237.714q18 0 33.428-7.143 4.286-2 5.143-6.572 0.857-4.857-2.572-8.285l-14-14q-4-4-9.143-2.286-6.572 1.714-12.857 1.714h-237.714q-18.857 0-32.285-13.428t-13.428-32.286v-237.714q0-18.857 13.428-32.286t32.285-13.428h237.714q18.857 0 32.286 13.428t13.428 32.286v36q0 3.714 2.572 6.286l18.286 18.286q4.286 4.286 10 2t5.714-8.286zM374.857 384l82.286-82.286-192-192h-82.286v82.286zM501.714 346.286l-26.286-26.285-82.286 82.285 26.286 26.286q8 8 19.428 8t19.428-8l43.428-43.428q8-8 8-19.428t-8-19.428z" />
<glyph unicode="&#xe635;" d="M91.428 256h146.286v54.857q0 30.286-21.428 51.714t-51.714 21.428-51.715-21.428-21.428-51.714v-54.857zM329.143 228.572v-164.571q0-11.428-8-19.428t-19.428-8h-274.286q-11.428 0-19.428 8t-8 19.428v164.571q0 11.429 8 19.429t19.428 8h9.143v54.857q0 52.572 37.715 90.286t90.285 37.714 90.285-37.714 37.714-90.286v-54.857h9.143q11.428 0 19.428-8t8-19.428z" horiz-adv-x="329" />
<glyph unicode="&#xe636;" d="M91.428 402.286q0-20.572-18.285-31.428v-361.714q0-3.714-2.715-6.428t-6.428-2.714h-18.285q-3.715 0-6.428 2.714t-2.715 6.428v361.714q-18.285 10.857-18.285 31.428 0 15.143 10.715 25.857t25.857 10.715 25.857-10.715 10.715-25.857zM512 384v-218q0-7.143-3.572-11t-11.286-7.857q-61.428-33.143-105.428-33.143-17.428 0-35.286 6.286t-31 13.714-33 13.714-40.714 6.286q-54.857 0-132.571-41.714-4.857-2.572-9.428-2.572-7.428 0-12.857 5.428t-5.428 12.857v212q0 9.143 8.857 15.714 6 4 22.572 12.286 67.428 34.285 120.285 34.285 30.571 0 57.143-8.285t62.572-25.143q10.857-5.428 25.143-5.428 15.428 0 33.572 6t31.428 13.428 25.143 13.428 15.572 6q7.428 0 12.857-5.428t5.428-12.857z" />
<glyph unicode="&#xe637;" d="M64 480h384v-512h-384v512z" />
<glyph unicode="&#xe638;" d="M237.714 329.143q0 22.857-16 38.857t-38.857 16-38.857-16-16-38.857q0-12 5.428-23.714-11.715 5.428-23.715 5.428-22.857 0-38.857-16t-16-38.857 16-38.857 38.857-16 38.857 16 16 38.857q0 12-5.428 23.715 11.714-5.428 23.714-5.428 22.857 0 38.857 16t16 38.857zM480.857 128q0-4.857-14-18.857t-18.857-14q-2.572 0-8.143 4.572t-10.428 9.428-11 11.428-7 7.428l-27.428-27.428 62.857-62.857q8-8 8-19.428 0-12-11.143-23.143t-23.143-11.143q-11.428 0-19.428 8l-191.714 191.714q-50.286-37.428-104.285-37.428-46.572 0-75.857 29.286t-29.285 75.857q0 45.715 27.143 89.429t70.857 70.857 89.428 27.143q46.572 0 75.857-29.286t29.286-75.857q0-54-37.428-104.286l101.428-101.428 27.428 27.428q-0.857 0.857-7.428 7t-11.428 11-9.428 10.428-4.572 8.143q0 4.857 14 18.857t18.857 14q3.714 0 6.572-2.857 1.714-1.714 13.143-12.714t23.428-22.714 24.714-24.572 20.857-22.286 8.143-11.714z" />
<glyph unicode="&#xe639;" d="M475.428 310.857v-73.143q0-7.428-5.428-12.857t-12.857-5.428h-18.286q-7.428 0-12.857 5.428t-5.428 12.857v73.143q0 30.286-21.428 51.714t-51.714 21.428-51.714-21.428-21.428-51.714v-54.857h27.428q11.428 0 19.428-8t8-19.428v-164.571q0-11.428-8-19.428t-19.428-8h-274.286q-11.428 0-19.428 8t-8 19.428v164.571q0 11.429 8 19.429t19.428 8h192v54.857q0 52.857 37.572 90.428t90.428 37.572 90.428-37.572 37.572-90.428z" horiz-adv-x="476" />
<glyph unicode="&#xe658;" d="M256 320v-128q0-4-2.571-6.572t-6.571-2.572h-91.428q-4 0-6.572 2.572t-2.571 6.572v18.286q0 4 2.571 6.572t6.572 2.571h64v100.572q0 4 2.571 6.572t6.571 2.571h18.286q4 0 6.572-2.571t2.572-6.572zM374.857 219.429q0 42.286-20.857 78t-56.572 56.572-78 20.857-78-20.857-56.572-56.572-20.857-78 20.857-78 56.572-56.572 78-20.857 78 20.857 56.572 56.572 20.857 78zM438.857 219.429q0-59.714-29.428-110.143t-79.857-79.857-110.143-29.428-110.143 29.428-79.857 79.857-29.428 110.143 29.428 110.143 79.857 79.857 110.143 29.428 110.143-29.428 79.857-79.857 29.428-110.143z" horiz-adv-x="439" />
<glyph unicode="&#xe800;" d="M510.238 323.567c-1.295 0.771-2.563 0.957-3.851 1.024-4.164 0.399-7.755-3.352-12.013-7.209-4.178-5.878-10.572-11.611-17.459-17.303-38.442-28.315-77.219-55.819-116.502-82.233-44.136-27.212-87.697-54.064-130.751-79.347-0.267-0.187-0.501-0.319-0.714-0.399-0.12-0.053-0.227-0.067-0.333-0.080-0.066-0.013-0.147-0.040-0.2-0.040-0.321-0.013-0.581 0.080-0.821 0.187-6.367 2.74-14.143 0-22.138-3.391-0.681 0.412-1.348 0.798-2.015 1.157-0.441 0.239-0.868 0.452-1.308 0.665-0.233 0.12-0.467 0.253-0.708 0.359-0.36 0.173-0.714 0.319-1.067 0.466-0.315 0.133-0.628 0.279-0.935 0.399-0.281 0.106-0.561 0.213-0.841 0.305-0.38 0.147-0.761 0.279-1.135 0.399-0.214 0.080-0.427 0.133-0.647 0.199-0.434 0.134-0.868 0.267-1.295 0.373-0.167 0.040-0.327 0.080-0.487 0.106-0.48 0.119-0.947 0.226-1.422 0.319-0.126 0.013-0.246 0.040-0.367 0.053-0.507 0.094-1.001 0.173-1.495 0.24-0.1 0.013-0.2 0.013-0.293 0.026-0.307 0.040-0.607 0.080-0.908 0.106l-0.026-0.014c-0.233 0.014-0.467 0.040-0.695 0.067-0.040 0.027-0.060 0.053-0.094 0.080-0.226 0.213-0.427 0.412-0.58 0.599-0.007 0.014-0.007 0.014-0.020 0.026-0.147 0.187-0.267 0.359-0.341 0.532-0.073 0.16-0.107 0.307-0.113 0.453v0c0 0 0.013 0.093 0.027 0.133 0.013 0.106 0.026 0.213 0.080 0.305 1.881 1.769 3.030 6.837 4.418 10.879 1.061 2.235 2.123 4.589 3.010 8.1 0.327 2.487 1.341 5.16 2.35 7.807 0.52 2.594 1.274 5.147 2.73 7.581 3.851 5.852 6.694 12.13 9.423 18.474 1.148 2.301 2.296 4.921 4.112 7.687 2.91 3.884 4.839 8.233 6.393 12.728 0.226 2.58 1.027 4.483 2.349 5.693 13.135 11.477 25.142 24.258 33.103 41.655 2.563 5.173 5.193 10.227 8.063 15.095 8.463 12.529 14.31 25.709 15.911 39.926 1.068 0.971 1.508 1.928 1.582 2.899h0.014v0.093c3.531 2.301 4.251 5.573 4.892 8.885 2.789 4.788 5.567 7.581 8.363 9.589-3.143-5.971-5.359-13.126-7.735-20.082-2.015-7.355-4.885-13.021-7.983-18.195-1.081-1.104-0.847-1.915-0.474-2.7-1.081-1.755 0.327-3.298 1.555-4.868-0.107-0.598-0.274-1.103-0.467-1.596-0.080-0.213-0.173-0.399-0.267-0.598-0.154-0.306-0.32-0.599-0.501-0.864-0.127-0.173-0.247-0.346-0.387-0.505-0.193-0.226-0.401-0.452-0.621-0.652-0.161-0.159-0.321-0.305-0.495-0.438-0.226-0.173-0.454-0.346-0.701-0.505-0.187-0.133-0.373-0.253-0.567-0.373-0.253-0.145-0.514-0.292-0.774-0.425-0.207-0.119-0.414-0.226-0.621-0.332-0.327-0.16-0.661-0.319-0.995-0.479-0.347-0.173-0.695-0.332-1.041-0.505-0.226-0.106-0.454-0.226-0.673-0.333-0.461-0.239-0.914-0.492-1.341-0.771-1.148-0.772-1.409-1.517-1.315-2.288-0.094-1.037 0.353-1.994 1.155-2.886l-0.053-0.333-1.101-0.346-1.502-0.465c-0.827-0.465-1.108-1.476-1.041-2.859 0.094-1.317 0.947-1.876 1.861-2.368-0.587-0.957-0.634-1.888-0.587-2.859 1.055-2.381 3.45-2.447 6.507-1.33 1.268 0.745 1.762 0.745 1.669 0.12-2.043-2.527-0.894-4.003 0.187-5.507 0.261-2.088 0.921-3.444 2.403-3.205 3.050-0.452 4.151 1.849 4.952 4.615 3.057-0.373 5.619 4.588 8.156 9.642 0.921 4.655 2.563 8.219 4.418 11.491v0.026c2.070 1.995 2.537 2.925 3.057 3.883 1.008 4.495 6.154 10.587 9.544 16.612 3.143 6.105 6.060 11.251 8.316 13.712 3.171 4.961 6.34 9.935 9.517 14.923 0.467 2.647 2.043 5.293 3.897 7.953 3.384 7.94 7.916 15.415 14.456 22.011 5.306 7.727 3.711 15.454-0.173 23.208-0.041 0.080-0.067 0.153-0.107 0.24-0.053 0.213-0.106 0.425-0.193 0.645-0.18 0.751-0.193 1.157-0.14 1.456 0.026 0.12 0.053 0.24 0.094 0.347l-8.483 12.554-0.020-0.006-0.127 0.193h0.007l-0.214 0.306c0.353 0.039 0.707 0.133 1.034 0.226 0.014 0.026 0.020 0.040 0.034 0.053 0.18 0.060 0.36 0.119 0.534 0.199 0.441 0.133 0.735 0.259 0.514 0.239 0.087 0.066 0.154 0.12 0.233 0.173 0.673 0.425 1.315 0.985 1.921 1.676 0.293 0.319 0.568 0.638 0.828 0.984 0.681 1.923 1.361 3.166 2.043 3.724 0.214 0.014 0.433 0.080 0.641 0.174 0.080 0.039 0.166 0.079 0.253 0.133 0.040 0.026 0.093 0.040 0.147 0.066l0.1 0.093c0.233 0.153 0.461 0.339 0.701 0.572l0.107 0.093c0.026 0.020 0.046 0.053 0.067 0.073 0.881 0.911 1.762 2.255 2.636 3.704 0.087 0.133 0.167 0.266 0.247 0.399 0.074 0.119 0.147 0.246 0.22 0.372 0.134 0.226 0.274 0.446 0.407 0.665h-0.007c0.007 0.013 0.007 0.013 0.007 0.013 0.014 0.014 0.014 0.014 0.027 0.014 0.067 0.147 0.134 0.279 0.226 0.425 2.99 1.356 4.779 2.687 5.954 4.043 1.241 2.041 2.109 5.226 2.883 8.645 0.154 0.612 0.24 1.157 0.293 1.689 0.026 0.2 0.040 0.399 0.053 0.586 0.013 0.359 0 0.697-0.020 1.024-0.020 0.225-0.047 0.452-0.080 0.658-0.053 0.299-0.121 0.592-0.207 0.858-0.067 0.187-0.134 0.365-0.214 0.538-0.080 0.18-0.167 0.339-0.253 0.505-0.080 0.127-0.127 0.273-0.2 0.393l-0.067 0.053c-0.24 0.359-0.534 0.691-0.847 0.998l0.040-0.020c-0.113 0.113-0.233 0.233-0.373 0.352 3.197 11.399-1.462 18.707-7.308 25.403-8.13 7.488-16.565 8.871-25.148 6.93-8.623-2.388-13.108-8.453-17.339-14.723l-1.529-0.758c-1.668-2.546-2.676-5.1-3.57-7.627-0.307-0.818-0.26-1.642 0.14-2.461-0.020-0.046-0.046-0.113-0.046-0.166l0.007 0.007c-1.815-6.072-0.927-11.857 0.861-17.563-0.293-0.379-0.54-0.692-0.753-0.971-0.007-0.020-0.034-0.040-0.047-0.060l0.007-0.007c-0.154-0.213-0.287-0.405-0.381-0.599l-0.020 0.020c-0.020-0.034-0.020-0.060-0.034-0.094v-0.013c-0.106-0.24-0.187-0.479-0.214-0.745-0.026-0.279 0-0.586 0.081-0.951-0.721 0.439-1.535 0.798-2.396 1.091-0.233 0.087-0.495 0.133-0.735 0.2-0.647 0.199-1.301 0.385-1.996 0.532-0.56 0.113-1.141 0.199-1.721 0.292-0.413 0.066-0.815 0.146-1.241 0.2-0.454 0.066-0.907 0.119-1.375 0.185-0.495 0.060-0.988 0.126-1.481 0.187v0c-0.14 0.013-0.281 0.033-0.427 0.053-1.241-1.357-9.33-0.167-15.324 0.253-0.187 0.199-0.427 0.332-0.693 0.412-0.201 0.067-0.441 0.080-0.688 0.087-0.067 0.007-0.12 0.020-0.187 0.020-0.301 0-0.621-0.040-0.942-0.093-0.026 0-0.040 0-0.053 0-0.167-0.027-0.334-0.053-0.501-0.087-0.007 0.007-0.007 0.007-0.014 0.019-0.286-0.079-0.587-0.146-0.887-0.213-11.92-0.425-20.971-3.444-29.139-7.215-1.935-0.392-2.843-1.635-2.616-3.837-4.298-0.466-7.755-2.647-11.206-4.755-4.865-3.631-9.991-6.484-15.204-9.011-14.289-7.101-32.243-24.192-51.036-43.623-0.401-0.293-0.774-0.586-1.135-0.891-0.133-0.106-0.241-0.213-0.375-0.319-0.214-0.186-0.427-0.385-0.633-0.572-0.12-0.106-0.233-0.225-0.347-0.345-0.194-0.173-0.381-0.359-0.554-0.546-0.101-0.119-0.201-0.226-0.293-0.332-0.173-0.187-0.347-0.385-0.508-0.586-0.080-0.093-0.16-0.186-0.24-0.293-0.173-0.199-0.333-0.412-0.494-0.625-0.054-0.080-0.107-0.147-0.16-0.226-0.187-0.252-0.361-0.505-0.535-0.757-0.013-0.026-0.034-0.053-0.054-0.080-0.267-0.399-0.52-0.798-0.761-1.197v-0.014c-0.12-0.199-0.24-0.399-0.353-0.598 0.087-0.173 0.147-0.333 0.18-0.506 0.013-0.040 0.007-0.079 0.013-0.119 0.013-0.134 0-0.267-0.040-0.386-0.013-0.027-0.020-0.067-0.034-0.094-0.154-0.305-0.513-0.585-1.201-0.785-4.839-1.143-9.684-3.285-14.523-5.879-1.168-0.173-2.262-0.438-3.323-0.757-0.247-0.080-0.481-0.16-0.721-0.253-0.855-0.279-1.683-0.612-2.476-0.985-0.087-0.039-0.187-0.067-0.267-0.119l-0.026-0.026c-0.881-0.439-1.736-0.918-2.543-1.451l0.026 0.053c-0.26-0.186-0.54-0.345-0.793-0.532l21.217 68.575c2.583 8.831 5.519 17.635 9.59 26.454 1.829 8.877-1.228 12.462-4.538 15.813l-7.101 4.096c-6.58 3.085-11.512 0.186-15.55-6.118-16.071-46.656-29.633-93.299-42.113-139.969l-79.515-303.33c-2.543-2.221-6.54-4.163-10.651-6.079-0.067-0.678-0.213-2.088-0.421-2.207-0.234-0.12 5.894-0.705 8.977-0.985l-1.014-7.514c7.941-3.671 14.71-8.339 21.95-12.714 0.061 0.187 0.121 0.385 0.181 0.572h0.006c1.422 4.389 2.797 8.791 4.171 13.26 1.855 6.065 3.711 12.249 5.653 18.713l0.381 0.213v0.014l0.413 0.239v0.014l89.252 52.667c79.462 46.589 158.942 93.179 231.303 140.474v-0.014c0.435 0.293 0.861 0.572 1.295 0.865 4.378 2.859 8.723 5.732 13.041 8.605 1.041 0.692 2.082 1.383 3.124 2.075 9.55 6.357 18.954 12.741 28.204 19.125 1.094 0.758 2.19 1.517 3.284 2.274 4.525 3.139 9.029 6.291 13.481 9.443 0.373 0.266 0.747 0.532 1.128 0.798 3.998 2.833 7.949 5.679 11.873 8.525 1.375 0.984 2.737 1.968 4.098 2.965 3.811 2.767 7.595 5.547 11.339 8.339 0.928 0.692 1.863 1.383 2.791 2.074 3.624 2.7 7.201 5.413 10.759 8.127 1.274 0.971 2.55 1.955 3.817 2.926 4.064 3.125 8.109 6.264 12.073 9.403 12.882 10.054 25.361 19.962 29.54 26.826 1.368 4.469 1.174 7.421-0.888 9.044zM136.111 214.481c20.423 24.392 46.972 44.993 72.774 66.047l-0.12-0.506-0.020-0.013-1.528-6.344c-5.726-8.338-8.57-19.112-10.852-30.323-2.19-4.709-3.691-9.403-4.792-14.111-12.434-25.111-20.823-35.857-28.151-42.799-2.897-0.586-4.138-3.073-3.738-7.502-0.707-2.713-1.388-5.306-2.096-7.461l-1.241-8.526-3.765-25.549c-1.195-5.334-1.408-10.201-1.454-14.962-0.374-3.059 1.362-5.453 2.91-7.887l0.587-2.008h0.007l0.447-1.529-4.585-1.237c0.421 3.086-0.42 3.724-1.248 4.349-0.327 2.182-1.174 2.887-2.089 3.325l-2.069-0.625c-1.362-1.529-0.301-3.046 0.4-4.575l2.089-4.774 2.516-11.637 0.4-2.899-0.607-2.274-105.517-64.824 27.731 101.159c1.903 4.402 3.13 4.669 4.398 5.201 0.981 0.213 1.815 0.864 2.576 1.755 0.027 0.026 0.053 0.067 0.081 0.093 0.28 0.333 0.547 0.678 0.801 1.064 0.073 0.106 0.14 0.213 0.213 0.319 0.234 0.359 0.467 0.745 0.694 1.13 6.421 5.986 11.213 12.543 15.845 19.125 4.765 11.571 12.594 23.115 22.317 34.699 7.075 8.034 12.293 16.067 17.085 24.1zM143.345 318.965c2.75 1.529 5.48 2.979 7.903 3.817-1.248-5.027-2.403-9.988 0.16-10.693 3.577 0 5.593 1.848 5.927 5.705 0.628 0.213 1.242 0.705 1.856 1.743-0.121 0.465-0.054 1.024 0.494 1.848 1.408 1.104 2.723 2.527 3.831 4.775 0.066 1.542 0.721 3.072 1.361 4.615 0.381 0.585 0.681 1.223 0.915 1.901 0.094 0.265 0.141 0.546 0.221 0.825 0.093 0.358 0.214 0.691 0.274 1.064l-0.040 0.013c0.026 0.173 0.087 0.319 0.113 0.506l1.308 1.024 1.041 0.612c0.254-0.053 0.501-0.053 0.747-0.026l0.027-0.027c0.054 0.014 0.094 0.040 0.147 0.053 0.261 0.040 0.521 0.119 0.774 0.226 0.040 0.027 0.080 0.040 0.12 0.054 0.293 0.147 0.567 0.345 0.841 0.572 0.054 0.053 0.107 0.093 0.161 0.147 0.274 0.226 0.54 0.505 0.801 0.798 0.053 0.053 0.094 0.106 0.147 0.173 0.267 0.307 0.535 0.639 0.794 0.985 14.943 14.776 28.925 27.531 39.904 34.021h0.794l1.195 0.12 1.482 0.133 1.743 0.399 2.023 0.545 1.855 0.385 2.963 0.399 0.133-2.075c-1.669-3.724-3.338-8.060-5.006-9.563l-3.123-0.199c-0.341-0.905-0.734-1.769-1.135-2.607-0.194-0.385-0.393-0.771-0.594-1.143-0.207-0.399-0.421-0.785-0.647-1.157-0.635-1.103-1.309-2.167-2.016-3.205-0.254-0.425-0.601-0.798-0.948-1.184-0.16-0.173-0.306-0.359-0.48-0.532-0.333-0.319-0.695-0.612-1.068-0.904-0.167-0.133-0.32-0.266-0.494-0.399-0.535-0.385-1.095-0.771-1.683-1.13-0.013-0.014-0.026-0.026-0.047-0.040-0.641-0.399-1.302-0.798-1.955-1.197-23.145-12.543-40.959-42.56-59.406-70.423-0.861-1.436-1.748-2.807-2.643-4.163-0.575-0.864-1.161-1.689-1.749-2.514-0.333-0.478-0.661-0.957-0.994-1.423-0.614-0.837-1.228-1.649-1.849-2.447-0.353-0.465-0.714-0.944-1.075-1.396-0.527-0.665-1.068-1.331-1.601-1.982-0.601-0.732-1.195-1.45-1.803-2.155-3.451-4.057-7.014-7.834-10.611-11.545-14.643-14.257-23.453-28.967-31.155-43.783l0.454 1.702 0.013 0.026 29.587 109.738-0.007 0.040 0.213 0.811c0.674-0.731 1.348-1.396 2.162-1.409 0.28 0 0.56 0.066 0.867 0.239 1.935 0.625 4.659 1.849 7.903 3.431 1.949 1.171 3.030 1.623 2.51 0.679-2.537-1.45-4.859-2.925-7.075-4.375-1.575-0.958-2.089-2.195 0-4.163 1.555-1.53 3.037-2.434 4.258-1.104l9.183 4.841z" />
<glyph unicode="&#xe801;" d="M434.771 46.297c-18.235 20.526-46.84 30.627-54.413 61.839 15.923 37.083 81.392 83.863 46.84 134.123-25 36.355-90.399 31.639-107.048-8.947-2.322-5.627-0.182-14.209-2.241-22.347-6.099-24.169-25.363-44.351-17.831-71.535-34.733 21.821-46.305 66.859-107.048 62.588-13.106 18.178-45.9 16.599-62.439 31.294 6.472 53.863 30.099 90.542 53.513 127.422 2.191-0.911 4.302-1.902 6.381-2.894 8.987-7.206 19.831-12.185 31.704-14.109 6.018-1.457 12.5-1.983 19.901-0.87 5.412 0.789 10.47 2.287 15.186 4.373 25.889 9.777 44.305 34.816 44.305 64.187 0 37.872-30.635 68.579-68.417 68.579-9.078 0-17.741-1.761-25.657-4.979-3.745-0.689-7.149-1.538-10.016-2.51-37.561-12.793-44.043-48.418-46.829-102.829-16.478-25.607-34.612-43.803-55.755-71.535-10.844-14.229-48.728-61.697-46.84-82.708 2.029-22.691 36.884-33.035 53.524-44.714 26.232-18.4 53.251-40.687 86.975-46.941 5.008-37.144-8.825-65.281-10.238-91.352-2.625-19.797 1.555-52.043 1.555-52.043 0 0 6.987 1.175 11.066 0.587 4.078-0.587 1.746-2.328 9.309-4.655 7.573-2.348 2.918-1.762 5.836-1.762 2.908 0 6.987 0 39.59 2.328 32.603 2.348 10.481-0.567 26.202-1.154 15.721-0.587 11.067 0.587 17.468 1.154 6.401 0.587 3.493 1.175 8.158 1.175 4.645 0 6.987 0.587 10.481 0.587 3.493 0 5.231-1.173 16.297-2.327 11.067-1.175 15.146-7.004 24.454-8.178 9.32-1.174 13.389 5.243 32.028 6.416 18.629 1.175 0 0 21.546-1.173 21.547-1.154 3.493 1.761 11.642 4.676 8.148 2.914 8.148 0 22.123-4.089 13.974-4.089 3.493 5.262 17.467 6.416 6.159 0.526 8.815 0.587 9.854 0.486-0.394 3.987-3.332 31.881-9.269 42.711-4.341 7.894-13.732 17.408-19.365 22.711zM463.406-19.125c0.031-0.304 0.041-0.486 0.041-0.486s1.272 0.365-0.041 0.486z" />
<glyph unicode="&#xe802;" d="M232.59 394.219c0.857 1.19 2.389-1.175 2.278-2.071-0.183-0.939-2.123-1.96-2.853-2.436-2.193-1.484-4.681-2.407-7.028-3.738 3.345-1.301 0-4.241 0-4.241-4.611-0.993-7.886-5.277-7.886-5.277 6.929-2.632 2.277-6.23 2.277-6.23 10.262 1.316 14.843-2.954 14.843-2.954 0.984-3.275 5.286-2.954 5.286-2.954 19.777 2.296 12.819-7.194 12.819-7.194 2.657 0 4.639-5.922 4.639-5.922 4.597 0.658 5.58-4.927 5.58-4.927 6.579 0 5.623-8.175 5.623-8.175 4.596 4.549 9.207 5.907 9.207 5.907 1.448 0.392 3.669 3.164 4.906 4.144 1.981 1.498 4.007 2.925 6.142 4.339 3.472 2.31 7.070 4.479 10.753 6.579 8.321 4.731 13.635 11.772 20.451 18.225 15.139 14.25 32.92 26.316 49.675 38.537 8.265 5.571 13.479 16.070 13.479 16.070 1.996 12.808 5.947 12.472 5.947 12.472 7.604 16.728 8.575 5.572 8.575 5.572l2.291 5.949c6.185 0.252 2.938-7.755 2.165-9.533 3.191 6.65 5.412-0.013 5.412-0.013l-4.611-8.875c-11.526-17.064-5.932-17.386-5.932-17.386 7.913 4.606 9.235 2.632 9.235 2.632 7.253-5.236-6.269-8.19-6.269-8.19-9.853-9.197-18.118-6.565-18.118-6.565-7.871-1.652-24.022-24.651-24.022-24.651-8.925-14.699-24.064-27.507-24.064-27.507-3.008-4.521-7.647-7.475-11.471-11.17-3.935-3.808-7.154-8.217-11.343-11.773-3.964-3.443-8.139-6.691-10.978-11.171-0.717-1.106-4.849-7.643-3.444-9.21 5.918-6.566 7.253-21.642 7.253-21.642 5.609-8.231 8.884-22.313 8.884-22.313 7.591-8.889 10.261-19.037 10.261-19.037 7.885-8.846 11.484-45.942 11.484-45.942 9.207-12.767 2.642-19.317 2.642-19.317 2.291-0.685 2.615-12.178 2.615-12.178 5.651-19.681-5.903-67.261-5.903-67.261 2.305-10.513-4.274-29.508-4.274-29.508-1.433-9.589-3.978-19.122-8.223-27.843-1.181-2.52-2.657-4.843-4.007-7.279-2.347-4.087-3.457-9.154-6.733-12.64-0.534-0.588-4.273-2.618-4.428-3.122-2.966-9.183-7.927-12.459-7.927-12.459 0-4.214-2.263-8.945-5.313-11.913-2.839-2.715-6.395-2.463-10.022-3.289-2.882-0.63-5.805-1.161-8.687-1.539-6.241-0.7-13.719-1.204-19.51 1.763-0.324 0.211-3.923 3.149-3.923 3.149-14.463-2.253-41.493-0.308-41.493-0.308-14.492 0-48.747-6.873-48.747-6.873-7.238-5.25-14.506-4.255-14.506-4.255-10.879-0.364-22.42-11.493-22.42-11.493-2.375-3.135-7.197-9.897-11.933-9.127-4.413 0.784-6.746 7.418-7.169 11.24-0.843 8.623 5.609 16.364 11.344 22.131 2.671 2.757 5.664 5.193 8.672 7.517 0.816 0.616 3.247 1.75 3.754 2.673 4.54 9.309 10.753 17.666 19.285 23.825 7.113 5.137 15.392-2.421 18.751-8.735 0.436-0.853 1.659-7.321 2.095-7.531 6.986-3.639 39.568 6.901 39.568 6.901 31.613 14.418 53.048 7.882 53.048 7.882 2.249-0.462 5.201-1.33 7.436-0.603-3.036 4.648-12.047 4.396-16.629 5.459-11.161 2.394-21.829 6.691-32.667 10.177-10.472 3.36-21.211 4.507-32.090 5.263-2.826 0.168-13.607 2.436-16.010 0.672-4.948-3.598-13.832-3.289-13.832-3.289-4.934-3.919-11.891-5.221-11.891-5.221-6.536-1.666-16.769-10.191-16.769-10.191-12.511-11.45-16.811 3.64-16.811 3.64-0.802 9.351 2.966 17.974 8.898 25.014 2.291 2.646 4.779 5.375 7.674 7.321 3.767 2.52 8.040 2.744 12.075 4.493 1.195 0.49 2.853 1.245 3.345 2.534 3.261 9.463 10.64 16.966 20.255 20.115 10.078 3.317 18.681-5.487 19.595-15.202 0.647-7.209 4.625-6.565 4.625-6.565 15.448-2.631 45.092-1.987 45.092-1.987 13.199 3.611 29.659 0.377 29.659 0.377 12.187-4.283 7.885 1.96 7.885 1.96-5.889 11.436 0.998 24.889 0.998 24.889-3.908 6.901-3.261 11.507-3.261 11.507-8.42 12.010-7.913 26.806-6.93 40.707 0.534 7.951 2.067 16.336 6.522 23.153 0.267 0.476 4.076 4.298 4.020 4.717-1.659 12.472-7.591 21.319-7.591 21.319-22.040 20.325-27.339 35.751-27.339 35.751-12.186 8.861-15.476 14.768-15.476 14.768-12.214 9.505-18.793 10.19-18.793 10.19-7.169 2.002-14.45 4.214-21.351 6.999-6.48 2.631-12.932 5.473-18.709 9.379-6.93 4.731-16.896 7.769-16.305 17.988 0.52 9.421 7.97 16.951 12.524 24.623 3.458 5.754 7.351 10.989 11.512 16.196 3.205 4.073 6.662 7.867 10.233 11.646 1.238 1.302 3.416 2.772 4.287 4.367 3.331 5.907 8.94 10.485 8.94 10.485 7.253 6.565 9.895 10.513 9.895 10.513 4.245 6.859 9.193 7.853 9.193 7.853 7.577 7.881 15.814 12.164 15.814 12.164 8.799 5.305 4.441-2.127 3.977-2.926zM206.559 309.209c19.778 0 13.817 4.269 13.817 4.269-28.661 3.947-31.95 20.689-31.95 20.689-13.832-23.965-7.577-24.301-7.577-24.301 8.237 5.6 25.709-0.657 25.709-0.657zM317.884 451.752c0-15.567-12.735-28.235-28.408-28.235-15.616 0-28.337 12.668-28.337 28.235 0 15.621 12.721 28.248 28.337 28.248 15.673 0 28.408-12.627 28.408-28.248z" />
<glyph unicode="&#xe803;" d="M371.389 92.409c-1.044 13.387-5.409 20.649-10.616 31.056-2.954 5.937-5.468 12.354-8.683 17.611-3.214 5.373-8.16 9.574-11.541 14.817-1.233 1.865-1.637 4.317-2.894 6.195-4.923 7.333-15.241 12.941-18.8 20.462-2.064 4.529-1.815 10.067-2.882 13.868-1.091 3.848-5.373 5.654-6.725 9.081-1.115 2.558-0.558 5.983-1.495 8.576-1.565 4.505-6.109 10.477-8.671 15.217-9.086 16.813-19.453 37.779-22.157 61.958-1.044 9.316-2.669 20.121-1.435 30.082 0.439 3.449 2.455 6.922 2.858 10.442 1.875 15.944-4.412 34.599-4.329 51.528 0.071 14.091 2.93 23.371-5.315 33.367 0.166 2.487 1.945 9.128-0.937 10.008-1.672 0.117-4.269-4.846-4.839-8.577-1.399-8.952-0.57-13.903 0-21.916 1.791-23.769-6.939-49.241-2.882-74.36 0.522-3.074-4.222-0.915-4.341-3.343 0.403-16.32-3.559-30.692-5.8-42.952-0.724-0.821-1.423-0.517-2.135 0.282-0.332 0.774-0.237 2.193-0.546 2.639-1.863 2.3-6.69 3.743-7.65 4.505-0.059 0.058-0.059 0.058-0.071 0.094-0.617 0.739 1.364 3.25 0.095 3.965-0.558 0.329-7.353 0.998-8.896 1.209-0.676 0.281-1.684 1.161-2.301 1.548-0.332 0.399-0.534 0.821-0.771 1.314-0.558 1.209-2.49 2.711-2.49 2.711 0 0-4.863 1.971-5.303 1.912-0.379-0.059-2.431-0.059-3.795-0.059-0.261 0.059-0.582 0.059-0.901 0.059-0.629 0-1.186-0.059-1.673-0.117h-0.178c-0.226-0.047-0.379-0.094-0.617-0.094v0c-0.605-0.117-3.712-0.293-4.792-0.997-1.103-0.704-1.554-1.056-2.004-1.654-0.475-0.551-3.939-2.675-4.875-3.848-0.949-1.151-1.672-3.063-2.704-4.447-1.068-1.419-1.779-2.498-2.894-4.177-1.126-1.771-0.202-3.132-0.676-4.951-0.511-2.147 0.202-5.104 0.202-5.104v0c0 0 0.202-3.097 0.641-4.258 0.475-1.197 0.652-1.526 1.269-3.168 0.783-1.865 1.221-2.487 3.108-4.154 1.791-1.513 3.214-1.9 3.356-2.006v0c1.767-1.654 1.827-1.549 2.847-2.277 0.071 0 1.969-0.856 2.537-1.196 1.281-0.869 1.495-1.045 2.823-1.749 0.889-0.563 1.127-0.985 2.443-1.654 1.233-0.623 4.875-2.1 4.875-2.1 0 0 0.487-0.235 1.696-0.81-0.047-4.259-1.281-7.322-1.435-11.463-7.022-3.766-14.898-6.969-21.681-11.439-4.685-3.063-8.065-8.623-15.467-8.565-4.139 0-11.054 3.966-13.937 6.652-1.518 1.385-4.721 5.221-5.326 6.722-0.782 1.855-0.059 5.339-0.961 8.061-0.996 3.191-4.234 4.364-4.827 6.722-0.913 3.578 2.479 14.888 3.369 19.042 2.23 9.973 10.462 16.378 15.537 24.661 5.243 8.659 9.085 19.417 11.944 28.709 1.839 5.948 2.111 19.464-4.293 21.4-8.386 2.569-17.744-8.859-21.219-13.927-6.061-8.893-11.078-19.077-9.655-33.355 0.747-6.957 3.998-14.36 3.831-20.379-0.143-5.151-2.977-14.384-4.815-18.056-1.044-2.112-3.571-4.681-5.788-7.673-2.041-2.733-5.551-5.045-5.777-7.145-0.652-5.597 10.248-9.387 11.565-14.783 2.775-11.533 4.661-21.775 13.972-25.717 3.891-1.666 10.307-1.279 15.443-1.925 2.573-3.801 4.531-8.201 7.733-11.427 9.975 3.344 19.819 7.286 30.863 5.714 13.13-1.889 23.164-11.345 30.815-20.52 3.701-4.387 9.039-10.852 10.117-15.709 0.676-2.98-0.711-7.332-0.486-11.861 0.202-3.813 2.040-7.896 1.933-11.029-0.166-3.93-1.708-7.027-1.447-10.947 0.261-3.719 2.277-7.474 2.894-11.474 1.885-12.107-0.771-25.259 1.921-34.774 0.901-3.25 4.377-4.001 4.815-7.649-12.099-6.523-23.425-11.978-32.31-21.435-8.635-9.351-16.7-19.065-25.999-27.653-10.367 1.232-12.453-9.139-21.669-10.501-1.056-8.834 8.635-13.48 11.065-20.989 1.068-3.285 0.25-7.755 1.934-10.923 1.684-3.39 6.215-2.733 8.184-5.315 2.894 0 5.8 0 8.671 0 4.947 4.904-0.249 12.014-0.439 17.188-0.107 1.607 1.126 3.719 1.411 6.207 0.676 5.901-0.155 10.371 1.934 14.267 5.29 10.008 23.473 19.218 34.207 24.813 5.456 2.863 12.466 6.324 19.286 9.996 5.836 3.191 15.028 6.817 18.313 11.005 4.613 5.83 2.325 15.064 9.145 18.584 2.823 10.711 5.966 21.165 8.659 31.935 7.852-1.642 11.137-11.439 18.373-14.301 3.499-1.373 8.327 0.082 12.051-1.009 1.115-5.245-4.816-6.699-7.721-8.987-5.765-4.517-13.664-11.263-17.839-17.646-2.538-3.978-3.736-9.902-7.235-13.844-3.44-3.789-9.786-8.529-14.471-11.439-1.933-1.209-4.377-1.619-5.8-2.863-1.577-1.432-3.298-5.045-5.301-8.107-1.613-2.499-4.733-6.148-4.804-8.072-0.214-6.699 12.656-12.788 21.195-13.375 4.567-2.276 7.295-5.807 13.035-8.118 6.121-2.429 20.899-3.613 20.721 4.798-0.071 6.101-11.707 8.107-15.407 12.354-2.384 2.757-4.804 8.576-3.855 14.36 0.57 3.497 6.832 10.407 11.565 13.81 5.147 3.743 10.141 7.015 14.459 10.488 9.216 7.31 21.077 15.429 26.972 23.359 4.625 6.136 3.582 10.325 2.894 19.007zM155.922 299.38c3.843 18.702 12.371 31.185 23.023 35.15 1.518 0.551 3.416 0.986 5.48-0.88 5.302-7.262-0.605-27.113-7.306-38.611-2.585-4.446-10.663-16.801-15.917-16.648-4.97 0.211-6.321 15.709-5.279 20.989zM282.455 463.199c4.721 0 8.493 3.731 8.493 8.401 0 4.669-3.772 8.4-8.493 8.4-4.721 0-8.516-3.731-8.516-8.4 0-4.67 3.795-8.401 8.516-8.401z" />
<glyph unicode="&#xe804;" d="M427.655 264.629c6.728 10.598 4.223 22.263 1.875 33.631-1.139 5.474-2.295 11.613-5.781 16.334-4.573 6.173-8.647 10.214-15.235 12.819 2.357 3.305 0.623 6.978-1.147 12.785-1.787 5.841-3.697 11.892-6.291 17.436-4.45 9.532-11.056 17.594-18.011 25.394-14.648 16.404-27.526 34.348-42.279 50.577-15.208 16.719-34.762 25.411-55.875 32.441-20.833 6.943-42.314 13.362-64.425 13.904-22.164 0.543-44.381-3.62-66.317-6.244-5.397-0.647-9.269-1.171-14.087-3.585l-4.503-2.239-0.192-0.333c-19.475-8.552-37.268-25.534-38.792-45.873l-0.824-1.014v-11.245l2.261-5.999 2.243-3.743 1.507-4.495 6.763-15.74 6.746-13.484 6.763-10.493 9.759-11.245 12.019-11.998 14.262-11.228 15.769-9.007 18.012-8.237 11.266-6.75 12.020-8.238 4.503-5.998 1.506-6.75v-6.733l-0.754-5.999-2.996-6.751-6.027-5.246-3.75-4.494-9.006-12.732-5.257-10.494-5.256-19.483-4.503-20.235-1.506-9.759-6.745-20.969-6.763-13.502-4.503-9.741-3.767-6.733-2.243-3.76-4.503-8.238-0.754-1.731-72.835-8.010v-26.985l3.013-2.238 2.26-3.009 1.49-2.238 1.507-2.256 0.754-2.99 0.736-3.008 1.507-2.99v-52.467l96.103-35.222 111.873 26.233v59.951l1.507 2.257 0.753 2.238 0.753 1.504 0.753 2.99 2.243 1.504 1.507 2.256 2.243 0.735 2.26 0.752v25.481l-39.869 8.272-6.685 2.221-17.276 8.255-6.745 5.247-2.26 1.487-1.506 2.256-3.75 1.504v2.238l-0.736 2.99-0.754 6.751 2.243 5.998 2.997 5.998 9.759 14.988 12.019 12.732 17.276 20.986 12.002 14.988 8.271 12.75 7.499 11.98 3.382 5.387c6.202-15.32 14.104-28.857 18.239-45.488 4.923-19.798 16.103-30.745 26.93-47.133 4.783-7.241 7.832-15.635 12.405-22.998 4.433-7.101 9.462-13.659 8.918-22.579-0.613-9.811-5.905-19.203-6.851-29.171-0.894-9.55 0.158-19.133-3.661-28.385 2.418-1.417 3.557-3.882 3.714-6.716 0.964 0.017 2.050-0.14 2.978-0.052 0.351-1.977 1.454-2.011 2.277-3.69 5.8 5.753 11.319 12.539 15.769 19.465-0.491-5.387-0.403-9.444-4.503-13.483 3.224-4.128 7.675 0.139 9.005 3.743l6.763 9.741 1.875 5.037-0.385-5.037c-0.298-3.847 0.175-9.216 0.894-13.082 0.63-3.34 5.94-17.978 8.112-7.905 12.651-2.885 14.928 34.121 13.544 41.221-5.659 28.926-7.762 57.765-5.151 87.059 1.437 15.985 2.435 28.944-0.701 44.859-1.437 7.31-4.538 14.865-5.466 22.194-0.175 1.399 0.385 14.358 0.464 23.085 5.459 3.883 11.442 6.856 15.358 13.012zM386.989 151.038c-7.657 20.147-12.353 41.396-21.341 61.106-2.015 4.442-5.642 8.325-7.202 12.889-2.418 7.101-2.812 14.691-3.539 22.211l2.155-1.207h3.75l6.010-2.991h6.255l0.508-0.752 1.297-0.315 0.945-2.676 2.243-5.246v-9.742l-1.49-11.997 2.26-11.998 3.75-16.474 3.75-9.759 1.507-13.484 1.507-15.74 0.044-0.437c-0.798 2.221-1.586 4.442-2.409 6.611z" />
<glyph unicode="&#xe805;" d="M507.106 361.091c-0.335 0.695-0.733 1.357-1.211 1.941-0.622 0.174-1.267 0.253-1.921 0.316-1.307 0.047-2.639-0.063-3.945-0.063-0.661 0-1.339 0.032-1.993 0.127-0.215 0.489-0.462 0.963-0.749 1.42-0.543 0.884-1.164 1.705-1.881 2.478-1.531 1.657-3.284 3.077-4.829 4.719-0.75 0.774-1.443 1.611-2.057 2.51-0.175 0.868-0.43 1.721-0.765 2.541-2.757 6.582-10.233 9.233-14.25 14.851-1.227 1.721-1.817 3.647-2.741 5.524-1.084 2.241-2.247 4.483-3.459 6.692-2.558 4.609-5.355 9.123-8.352 13.494-6.041 8.807-12.799 17.124-19.987 25.094-1.834 2.036-3.714 4.056-5.595 6.061-1.738 1.831-3.227 3.756-4.877 5.697-1.721 2.005-3.682 3.82-5.745 5.493-0.941 0.757-1.921 1.483-2.893 2.209-0.495 0.331-0.981 0.695-1.49 1.026-0.519-0.016-1.060 0.031-1.57 0.142-2.072 0.458-3.729 1.877-5.769 2.399-1.1 0.269-2.152-0.015-3.268-0.047-1.084 0-2.167 0.111-3.251 0.284-4.36 0.726-8.863 2.541-13.221 0.821-1.204-0.474-2.080-1.247-2.256-2.573-0.111-0.805-0.462-0.678-1.243-0.868-0.598-0.142-1.195-0.252-1.825-0.363-2.526-0.347-5.077-0.332-7.619-0.347-2.709-0.048-5.475-0.143-8.121-0.9-0.893-0.268-1.251-1.215-2.088-1.673-0.717-0.394-1.531-0.521-2.311-0.568-0.781-0.032-1.546 0.015-2.327 0.079-1.092 0.079-2.183 0.159-3.251-0.015-2.359-0.395-4.75-0.426-7.157-0.743-2.846-0.362-5.635-0.931-8.408-1.609-0.613-0.173-2.399-0.315-2.781-0.805-0.334-0.379-0.67-0.774-1.004-1.168-0.414-0.521-2.678-0.615-3.347-0.741-1.124-0.237-2.24-0.474-3.347-0.679-2.216-0.474-4.439-0.979-6.599-1.673-2.375-0.741-4.654-1.72-6.774-3.029-2.032-1.263-3.738-2.967-5.786-4.167-4.144-2.431-8.878-3.409-13.437-4.735-4.877-1.452-9.675-3.077-14.281-5.24-1.339-0.615-2.678-1.262-4.025-1.894-0.589-0.253-1.155-0.505-1.729-0.741-0.445 0.237-0.908 0.425-1.418 0.536-1.769 0.379-3.426-0.489-4.909-1.325-0.925-0.489-1.834-0.995-2.822-1.294-0.845-0.253-1.514-0.016-2.406 0.079-1.579 0.206-3.403 0.159-4.193-1.483-1.235 1.105 0.16 3.283-0.558 4.593-0.893 2.036-2 4.056-3.649 5.571 0.493 0.505 1.322 0.742 1.553 1.483 0.231 0.774-1.57 2.020-2.096 2.493-0.893 0.742-1.841 1.421-2.821 2.036-1.1 0.647-1.228 1.089-1.466 2.336-0.478 2.288-0.478 4.624-0.383 6.928 0.056 1.215 0.383 2.305-0.446 3.299-0.511 0.599-1.164 1.057-1.921 1.293-2.096 5.666-5.683 13.052-12.728 13.368-0.016 0.995 1.499 1.957 0.207 2.777-1.681 0.173-3.379 0-5.053-0.079-0.829-0.031-1.657-0.031-2.478 0.048-1.076 0.126-1.203 0.284-1.809 1.089-0.654 0.899-1.475 1.626-2.431 2.194-2.032 1.199-4.446 1.531-6.766 1.594-0.781 0.015-3.22 0.379-3.626-0.395-0.367-0.726-0.215-1.61 0.565-1.91-0.51-0.631-1.506-0.221-2.215-0.189-0.941 0.031-1.897 0-2.838-0.079-1.865-0.19-3.697-0.616-5.451-1.262-3.633-1.295-6.91-3.425-9.867-5.855-0.797-0.647-1.275-1.168-2.287-1.373-0.757-0.158-1.537-0.315-2.271-0.599-1.418-0.521-2.55-1.358-2.247-2.92 0.27-1.421 0.111-1.91-1.323-2.352-0.494-0.157-0.765 0.127-1.004 0.427-0.367 0.457-0.621 0.931-1.499-0.427-0.869-1.373-1.227-3.298-2.861-4.009-1.65-0.709-3.085-1.831-4.264-3.172-1.052-1.183-2.311-2.825-2.311-4.498-0.008-0.757 0.287-1.689 1.036-1.752 0.733-0.016 0.096-0.789-0.143-0.994-2.455-2.179-3.938-5.666-2.518-8.839 0.375-0.836 2.415-4.056 3.571-3.409 1.036 0.584 0.415 2.289 0.589 3.204 1.275-0.774 2.575-1.799 4.104-1.973 0.885-0.111 1.028-0.757 1.523-1.515 1.307-2.020 1.865 2.714 2.072 3.488 1.514-2.399 1.084-5.508 1.116-8.191 0.032-2.525-0.367-5.067 0.159-7.576 0.271-1.246 0.765-2.462 1.514-3.503 0.654-0.884 2.255-1.705 2.295-2.714 0.175-2.936-0.733-5.761-1.411-8.601-0.535-2.289-1.69-5.966 0.94-7.307 1.857-0.963 3.451-0.3 5.356-0.221 1.984 0.079 2.183-2.131 2.311-3.647 0.294-3.172 3.466-1.846 5.778-1.815-0.956-1.499-1.738-4.403 0.335-5.397 0.645-0.316 2.056 0.047 2.295-0.442 0.319-0.678 0.534-1.404 0.701-2.147 0.654-2.714 1.116-6.454 4.726-6.534 2.016-0.063 3.817 1.105 5.22 2.462 0.654 0.647 1.259 1.389 1.785 2.147 0.47 0.679 2.327 0.569 3.164 0.79 2.335 0.568 4.503 1.641 6.686 2.588 0.559 0.237 1.1 0.49 1.666 0.711 0.709 0.268 0.645 0.094 1.307-0.031 0.694-0.142 1.523-0.111 2.056-0.647-3.307-2.115-6.869-3.867-10.4-5.587-1.801-0.852-3.571-1.705-5.332-2.651-0.167-1.184-0.63-2.32-1.489-3.204-1.595-1.626-4.001-2.067-6.073-2.793-2.853-1.011-4.949-3.172-7.555-4.64-4.16-2.351-8.869-3.535-13.659-3.661-2.28-0.047-4.256-2.525-6.073-3.882-1.737-1.295-3.633-2.541-5.802-3.061-1.411-0.363-3.013-0.332-4.542-0.284-0.589 0-1.164 0-1.721 0-10.377-0.159-20.769-0.332-31.169-0.489-13.476-0.205-26.969-0.442-40.453-0.631-18.705-0.284-37.377-0.537-56.066-0.805-8.177-0.111-16.361-0.142-24.547-0.221-2.773-0.032-5.555-0.048-8.352-0.063-2.63-0.032-5.252-0.063-7.889-0.063-3.347-0.047-2.049-2.494-2.582-4.751 0.614-1.105 2.184-0.663 3.307-0.663 2.639 0 5.284-0.031 7.945-0.031 4.057-0.048 8.13-0.063 12.194-0.095-0.43-1.609 1.611-4.135 3.172-4.403 1.243-0.221 2.518-0.458 3.777-0.663-1.626-1.389-5.212-0.6-5.93-3.063-0.892-3.156 3.14-2.872 5.021-3.141 1.331-0.189 2.12-0.994 2.327-2.32 1.697-0.789 3.547-1.12 5.404-1.025 3.426 0.206 6.599 1.72 9.843 2.699 1.73 0.521 3.531 0.915 5.347 0.883 0.933 0 2.152 0.206 2.256-0.915 0.071-0.537-0.152-1.042-0.511-1.436-0.901-0.994-2.263-1.421-3.291-2.241-1.164-0.947-2.709-1.279-3.761-2.462-1.466-1.673-1.14-3.804 0.263-5.398 1.188-1.357 3.132-1.483 4.87-1.168 3.236 0.584 5.913 2.92 8.432 4.861 0.877 0.679 1.769 1.326 2.694 1.925 1.164 0.742 1.498 0.852 2.838 0.489 2.471-0.679 5.021-0.931 7.571-0.853 5.108 0.173 10.034 1.625 14.966 2.762 1.387 0.315 2.773 0.599 4.16 0.821 1.299-0.269 2.582-0.553 3.873-0.837 2.621-0.568 5.252-1.121 7.865-1.657 5.523-1.153 11.063-2.289 16.57-3.535 5.499-1.216 10.965-2.557 16.369-4.119 5.53-1.578 11.412-2.036 17.135-1.894 2.909 0.079 5.85 0.347 8.734 0.711 1.323 0.173 2.631 0.347 3.937 0.584 0.654 0.111 1.307 0.221 1.953 0.347 0.837 0.157 0.654 0.079 0.981-0.584 0.749-1.594 1.466-3.314 2.749-4.577 0.535-0.537 1.204-0.994 1.985-1.184 1.243-0.315 1.681 0.3 2.63 1.010 3.778 2.778 8.273 4.040 12.799 4.987 2.296 0.505 4.614 0.931 6.894 1.531 1.060 0.3 2.096 0.584 3.124 0.963 0.51 0.158 1.020 0.363 1.53 0.568 0.709 0.3 0.463 0.411 0.583 1.074 0.525 3.314 4.351 3.599 7.037 4.166 1.697 0.347 3.228 1.089 4.958 1.357 1.992 0.347 3.992 0.442 5.985 0.757 2.072 0.3 4.16 0.774 5.913 1.925 0.908 0.6 1.466 1.721 2.526 1.405 1.322-0.394 2.685-0.726 4.041-0.995 5.347-0.995 10.806-0.774 16.155-0.016 2.837 0.41 5.659 0.931 8.471 1.484 1.355 0.252 2.693 0.505 4.049 0.742 1.163 0.205 2.989 0.962 3.858 0.111 3.985-3.977 8.113-7.765 12.321-11.474 8.32-7.339 16.959-14.314 25.51-21.401 1.204-0.979 2.399-1.958 3.579-2.967 0.495-0.426 1.084-1.152 1.705-1.341 1.004-0.316 2.009-0.631 3.005-0.931 1.315-0.411 2.613-0.805 3.913-1.215 1.49-0.457 2.599-1.973 3.729-2.983 4.28-3.93 8.464-7.954 12.672-11.963 2.184-2.098 4.367-4.197 6.567-6.297 1.705-1.609 3.267-3.425 5.483-4.387 1.020-0.442 2.088-0.805 3.076-1.389 0.406-0.252 0.813-0.521 1.139-0.899 0.599-0.568 0-0.805-0.423-1.357-1.514-2.036-3.020-4.056-4.495-6.092-3.076-4.277-6.049-8.601-8.878-13.036-5.69-8.853-10.822-18.071-15.127-27.651-2.12-4.735-3.721-9.69-5.993-14.346-2.096-4.214-4.671-8.238-7.284-12.184-2.615-3.962-5.3-7.86-7.651-11.979-2.247-3.882-5.244-8.806-5.467-13.352-0.295-5.539 0.845-11.063 0.495-16.603-0.199-2.935-1.036-5.729-1.315-8.664-0.231-2.636-0.295-5.303-0.247-7.954 0.112-5.445 0.685-10.858 0.988-16.241 0.152-2.841 0.247-5.713 0.144-8.553-0.080-2.589-1.164-5.161-1.563-7.75-1.514-10.226 0.941-20.438 0.845-30.665-0.064-5.397-1.052-10.795-1.531-16.193-0.478-5.603-0.964-11.221-1.69-16.793-0.701-5.524-2.072-10.906-2.869-16.397-0.358-2.526-1.028-5.019-0.765-7.576 0.119-1.041 1.531-1.31 2.438-1.72-3.315-4.64-6.822-9.359-11.779-12.405-1.036-0.647-0.797-0.521-1.666 0.111-0.39 0.3-0.877 0.363-1.363 0.253-0.917-0.237-1.658-0.947-2.367-1.531-1.697-1.405-2.845-2.936-5.077-3.63-2.471-0.741-5.132-1.325-7.731-1.514-3.204-0.237-6.439-0.079-9.643-0.647-2.287-0.426-4.814-1.989-5.451-4.403-0.549-2.163-0.399-5.413 2.383-5.95-2.75-2.052 4.901-3.851 5.977-4.009 3.005-0.489 6.033-0.521 9.062-0.741 6.439-0.521 12.966-1.909 19.43-0.995 3.053 0.457 5.842 1.846 8.671 2.983 0.861 0.331 1.817 0.883 2.717 1.057 0.949 0.205 2.12 0 3.076 0 1.474 0 2.957 0 4.439 0 0.678 0 1.801 0.379 1.865-0.425 0.064-1.058-0.191-2.178 0.207-3.188 0.478-1.121 2.041-0.553 3.061-0.505 2.613 0.111 5.244 0.032 7.858-0.125 2.87-0.142 5.723-0.363 8.607-0.426 1.881-0.031 5.795-0.678 7.205 0.726 1.435 1.421 1.243 3.583 1.132 5.397-0.064 0.916-0.12 1.815-0.032 2.762 0.119 1.073 0.813 1.894 1.227 2.872 1.825 4.356 1.132 9.312-0.478 13.636-0.271 0.663-0.541 1.327-0.837 1.989-0.303 0.678-0.471 0.442-1.044 0.789-0.646 0.409-0.924 1.12-1.052 1.83-0.247 1.373-0.43 2.81-0.255 4.214 0.064 0.663 0.271 1.594 1.116 1.594 0.853-0.016 1.211 2.020 1.418 2.793 0.622 2.336 0.765 4.798 0.845 7.212 0.176 5.382 0.829 10.654 1.419 15.988 1.275 11.442 2.534 22.837 3.363 34.295 0.414 5.666 0.733 11.363 0.876 17.045 0.128 4.94-0.733 9.786-0.797 14.726-0.048 2.493 0.207 5.002 1.068 7.339 0.438 1.136 1.219 2.147 1.498 3.346 0.303 1.31 0.558 2.636 0.741 3.962 0.741 5.366 0.615 10.764 0.805 16.145 0.191 5.524 1.147 10.527 2.789 15.767 0.805 2.541 1.1 5.208 1.45 7.828 0.072 0.631 0.16 1.263 0.271 1.878 0.495 0.363 0.988 0.741 1.507 1.136 0.956 0.743 1.905 1.547 2.845 2.336 7.603 6.486 13.82 14.299 20.553 21.591 3.387 3.661 7.332 6.897 10.496 10.748 3.14 3.819 5.707 8.081 8.4 12.231 5.842 8.996 13.565 16.209 21.064 23.847 1.323-2.257 2.829-4.419 4.359-6.549 1.546-2.147 3.156-4.324 4.591-6.582 0.654-1.025 1.283-2.067 1.873-3.125 0.279-0.521 0.55-1.041 0.813-1.594-0.263-0.553-0.502-1.105-0.678-1.689-1.442-4.388-0.366-8.791 1.514-12.878 0.988-2.068 2.119-4.104 3.195-6.155 0.486-0.931 0.941-1.878 1.371-2.841-0.151-1.026-0.231-2.068-0.263-3.094-0.111-4.183 0.733-8.286 2.056-12.215 2.663-7.876 7.109-15.057 9.5-23.043 1.243-4.183 1.363-8.128 1.45-12.437 0.072-4.767 1.251-9.501 3.347-13.81 1.1-2.289 2.454-4.483 4.017-6.519 0.375-0.474 0.757-0.947 1.132-1.42-0.080-0.695-0.16-1.389-0.223-2.083-0.144-1.389-0.255-2.762-0.375-4.167-0.375-5.618-0.359-11.3 0.262-16.902 0.606-5.54 1.817-10.921 3.714-16.178 0.924-2.556 2.885-5.587 2.502-8.286-0.399-2.745-0.685-5.508-0.877-8.269-0.733-11.221 0.247-22.49 2.056-33.585 0.471-2.857 0.98-5.683 1.514-8.491 0.51-2.651 0.255-5.413 0.079-8.097-0.191-2.935-0.526-5.887-0.829-8.822-0.151-1.736-1.394-5.792 1.403-6.029-1.555-1.579-1.531-4.024-1.961-6.092-0.247-1.12-0.829-1.058-1.897-1.247-0.861-0.142-1.729-0.237-2.567-0.537-2.088-0.726-2.502-2.62-3.379-4.403-0.558-1.137-2.088-3.63-0.589-4.372 0.646-0.331 1.299-0.647 1.953-0.978 0.447-0.205-0.43-1.199-0.654-1.468-0.996-1.215-2.486-2.447-2.176-4.214 0.176-0.852-0.972-1.957-1.307-2.873-0.335-0.947-0.51-1.941-0.51-2.919 0.016-0.963 0.119-2.083 0.925-2.667 0.908-0.663 1.905-1.152 2.933-1.515 2.311-0.774 4.765-0.9 7.164-1.105 2.144-0.221 4.471-0.963 6.583-0.852 3.371 0.125 6.735-0.459 10.089-0.789 3.132-0.284 6.543-0.457 9.508 0.805 2.845 1.215 5.753 4.75 5.292 7.986-0.144 1.057-0.606 2.051-0.637 3.109-0.016 0.442 0.063 0.852 0.262 1.231 0.295 0.584 0.040 0.631 0.064 1.247 0.024 0.837 0.63 1.5 1.044 2.131 0.589 0.962 0.382 1.767 0.327 2.809-0.128 4.735 1.251 9.911-0.949 14.378 3.188 1.277 7.643 2.288 6.981 6.534-0.813 5.287-0.925 10.653-1.108 15.987-0.119 2.904-0.247 5.808-0.534 8.681-0.287 2.777-0.717 5.319-0.622 8.081 0.223 5.587 0.223 11.19 0.095 16.777-0.143 5.792-0.423 11.6-0.693 17.376-0.135 2.777-0.279 5.571-0.406 8.333-0.047 1.405-0.111 2.779-0.175 4.151-0.032 0.711-0.064 1.405-0.087 2.099-0.247 0.474-0.423 0.978-0.519 1.499-0.414 2.193 0.382 4.387 0.781 6.502 0.462 2.462-0.016 4.877-0.262 7.339-0.534 5.445-0.981 10.89-1.714 16.303-0.39 2.904-0.877 5.824-1.466 8.712-0.287 1.327-0.606 2.652-0.941 3.945 0.088 1.341 0.144 2.667 0.159 4.009 0.024 2.793-0.135 5.603-0.207 8.397-0.079 2.619 0.319 5.382-0.127 7.938-0.901 5.476-1.466 11.016-1.435 16.571 0.024 5.729 0.964 11.316 0.478 17.061-0.43 5.508-1.555 10.921-2.367 16.382-0.375 2.636-1.682 5.145-2.303 7.781-0.55 2.414-0.909 4.877-1.187 7.339-1.244 10.827-2.487 21.638-4.28 32.417-1.873 11.173-4.017 22.316-5.483 33.601-0.709 5.398-1.060 10.779-2.112 16.146-0.901 4.64-1.594 9.327-2.989 13.873-1.474 4.75-3.801 9.248-7.332 12.846-3.786 3.866-8.049 7.134-11.986 10.811-0.892 0.821-1.099 0.726-0.43 1.578 0.43 0.521 0.845 1.042 1.259 1.577 0.327 0.395 0.75 0.584 0.271 0.995-0.637 0.537-1.546 0.489-2.327 0.663-1.052 0.268-2.167 1.136-3.156 1.641-1.084 0.521-2.167 1.073-3.227 1.641-2.057 1.137-4.089 2.415-5.795 4.025 8.265 0.237 16.553 0.221 24.817 0.016-0.279-1.2 1.483-3.188 2.637-2.889 1.108 0.285 1.961-0.221 2.606-1.104 0.622-0.821 1.1-1.815 2.016-2.383 1.124-0.679 3.021-0.411 4.137 0.125 1.020 0.459 1.673 1.231 1.737 2.383 0.048 0.884-0.55 1.579 0.406 2.021 0.933 0.441 1.283-0.569 1.522-1.247 0.382-1.105 0.75-1.925 1.865-2.43 0.829-0.347 1.738-0.474 2.615-0.205 0.231 0.521 0.541 1.137 1.084 1.421 0.813 0.411 1.618-0.032 2.406-0.489 0.965-0.568 1.929-1.152 2.941-0.079 1.825 1.089 2.2 3.409 3.308 5.051 1.147 1.704 4.295 1.909 5.474 0.031 0.613-0.962 0.774-2.446 2.112-2.761 1.331-0.206 2.041 0.757 2.599 1.814 0.781 1.452 1.442 1.973 3.172 1.784 1.37-0.142 2.733-0.584 4.12-0.584 3.913 0 3.005 6.85 1.969 9.106zM456.34 364.169c-3.666-0.047-7.308-0.126-10.966-0.173-8.281-0.142-16.545-0.253-24.81-0.379-0.733 0-1.363 0.269-1.905 0.79-1.322 1.341-2.741 2.604-4.208 3.85-3.076 2.542-6.328 4.909-9.468 7.403-6.455 5.067-12.297 10.953-14.839 18.939-2.040 8.791-9.133 15.466-15.063 21.922 1.227 0.474 2.534 0.695 3.649 1.436 0.63 0.931 1.443 1.736 2.359 2.383 1.721 1.199 3.745 1.909 5.707 2.636 0.925 0.363 1.857 0.709 2.741 1.12 0.909 0.426 1.825 1.31 2.693 0.9 2.351-1.058 4.527 1.293 6.839 1.341 2.183 0.063 4.319-0.553 6.479-0.806 1.203-0.141 2.447-0.205 3.642 0.111 0.478 0.126 0.965 0.315 1.411 0.552 0.741 0.442 0.646 0.852 1.378 0.142 1.977-1.799 3.937-3.647 5.945-5.461 4.088-3.725 8.288-7.403 12.648-10.859 8.559-6.802 16.505-14.046 23.733-22.237 6.815-6.297 1.331-15.909 2.033-23.611z" />
<glyph unicode="&#xe806;" d="M387.624 4.077c-6.143 6.051-12.844 11.426-19.002 17.433-1.217 0.69-1.789-0.367-2.741 0.367-6.217 8.973-16.011 14.348-23.312 22.19-2.991 6.418-8.020 10.956-11.906 16.228-1.877 2.615-3.841 5.435-5.909 7.93-5.337 6.418-9.691 10.060-15.878 15.861-3.050 2.937-6.173 6.476-9.032 8.341-2.918 1.791-5.864 2.923-7.932 5.125-1.817 1.997-2.448 4.919-3.929 7.123-1.965 2.878-5 4.303-5.923 7.519 3.269 1.277 6.642-1.909 11.406-2.379 3.798-0.293 7.947 0.265 12.228 0 2.273-2.981 5.395-3.113 7.184-5.903 0.924-1.469 0.366-2.879 1.144-4.759 1.495-3.495 6.363-8.225 9.559-11.529 3.504-3.627 7.594-7.123 10.263-10.677 5.073-6.756 8.504-13.923 13.049-20.605 1.129-1.703 2.053-3.789 2.757-5.918 3.797-2.702 7.33-5.611 11.055-8.356 1.599 0 3.182 0 4.75 0 10.541 4.038 5.747 21.735 5.557 34.101-5.762 9.002-10.996 18.549-18.591 25.774 0 0.911 0 1.835 0 2.731-3.211 3.642-5.601 8.166-7.536 13.086-2.947 1.63-6.48 7.064-9.853 7.945-2.947 0.705-5.835-0.969-9.896-0.411-1.921 3.599-5 6.080-4.707 11.896-1.334 2.13-3.373 3.495-3.182 7.123-3.373 3.774-6.817 7.475-11.070 10.31-2.889-0.22-5.014 0.279-7.155 0.764-1.319 4.627-2.273 10.148-0.807 15.053 0.587 1.938 2.419 3.113 2.815 4.729 1.745 7.798-0.938 15.127 0.352 22.998 3.856 1.821 4.252 20.31 2.8 25.377-0.513 1.571-2.316 2.981-2.8 4.729-0.851 3.157 0 6.549 0 9.913-0.044 6.624-0.646 13.379 0 19.386 5.439 2.115 5.733-4.625 11.070-2.745 1.261-1.028 1.729-2.776 3.196-3.584 4.238 1.836 6.099-3.597 9.105-3.157 2.331 0.339 1.437 2.526 3.592 3.423 18.781-12.91 39.733-14.936 49.791-3.76 5.498 6.183 6.657 15.347 4.017 25.26 6.598 2.394 0.454 11.984-0.498 15.862-0.44 2.056 0.103 4.641-0.337 5.963-0.689 1.689-2.58 2.525-2.844 3.569 0.264 3.333-0.264 4.332-1.525 6.3-2.581 4.171-5.748 6.359-8.328 10.339-0.484 0.779-0.293 1.953-0.762 2.746-1.599 2.541-4.135 3.951-5.557 5.948-2.243 3.099-3.064 6.373-3.108 9.899-0.22 4.156-1.423 8.723-1.276 13.496 0.22 3.921 0.514 7.549-0.352 11.059-0.322 1.424-1.393 2.879-1.583 4.346-0.235 1.645 0.44 3.774 0 5.567-0.308 1.058-2.991 2.481-3.563 4.743-0.807 3.291-1.393 4.024-3.182 5.552 0.572 4.523-2.976 4.905-3.914 7.901-7.888 2.511-11.714 8.944-20.57 10.353-1.891 2.159-3.108 5.038-4.017 8.298-2.713 0.779-5.836 1.101-5.909 3.555-7.536-0.94-10.117 6.007-16.172 3.965-1.232 0.485-1.085 2.379-2.829 2.379-13.533 5.155-28.708 10.163-43.061 13.864-2.125 0.543-4.325 2.453-6.715 2.379-1.979-0.059-3.944-1.719-5.923-1.998-9.515-1.351-20.439 0.397-31.274 0-2.096 4.495 1.863 7.711 2.375 11.925 0.674 4.875 0.235 10.779 0 16.243-0.102 1.733 0.411 3.892 0 5.522-0.263 1.057-2.683 5.111-4.355 6.726-1.481 1.513-4.794 2.335-7.125 3.951-1.539 1.101-2.125 2.702-3.123 3.172-1.569 0.719-4.018 0.147-5.953 0.837-1.686 0.602-2.625 2.056-3.915 2.335-1.73 0.353-3.885-0.382-6.377-0.382-3.372 0-7.228 0.984-9.867 0.382-2.917-0.631-4.927-4.288-8.68-3.172-4.867-5.037-12.066-7.74-17.051-12.659-1.819 0.352-2.243-0.661-3.534-0.793-0.528-5.61-4.839-7.020-3.577-13.467 1.936-2.438 4.736-3.98 6.305-6.741 0.513-4.509-1.437-8.122 0-12.674 0.499-1.528 2.302-2.746 2.815-4.347 1.291-4.245-0.748-8.665 0.367-13.086 0.308-1.101 2.053-2.893 2.786-5.154 0.234-0.72 0.073-2.189 0.381-2.762 1.29-2.57 3.885-2.981 3.167-6.329-0.411-2.070-4.575-4.45-6.333-6.359-2.361-2.525-5.014-5.052-6.73-7.123-1.261-1.587-2.067-4.671-3.519-7.152-1.774-2.835-4.487-5.199-5.542-7.505-0.66-1.278-0.293-2.849-0.778-3.966-0.557-1.174-1.715-1.968-2.404-3.142-1.217-2.203-3.109-5.111-3.607-7.137-0.894-4.421-0.763-11.352 0.469-15.054 0.41-1.292 1.921-2.57 2.389-3.95 0.586-2.1 0.044-4.376 0.308-6.374 0.601-3.26 2.287-5.889 2.844-9.12 0.22-1.777-0.279-4.523 0.367-6.697 0.499-1.543 2.477-3.040 3.137-4.803 0.439-0.911 0.088-2.188 0.454-3.128 0.454-1.263 1.862-2.262 2.36-3.555 0.425-1.292 0.293-2.79 0.762-3.965 0.601-1.498 1.774-2.512 2.375-3.98 1.364-3.319 2.171-5.243 3.181-7.916 0.631-1.718 0.572-3.848 1.159-4.744 3.387-5.155 6.246 0.147 9.911 0.411 3.446 0.191 4.839-1.879 5.923-4.787 2.683-2.291 4.633-5.111 7.888-8.327 1.994-1.909 7.067-5.419 7.976-8.297 1.554-5.301-2.565-9.179-3.196-11.896-1.393-6.021 1.686-8.885 2.727-12.262 0.411-1.145 0-2.673 0.469-3.584 1.701-3.906 5.499-5.536 6.291-9.12 1.789-8.209-1.994-16.683 0.396-23.336 0.322-0.998 1.774-1.954 2.389-3.187 1.423-3.099 1.597-4.185 3.534-6.358 0-1.293 0-2.629 0-3.921 4.179-3.687 1.877-9.795 3.563-15.082 0.425-1.277 2.214-2.629 2.757-4.333 1.333-4.214 2.962-6.447 4.355-9.502 1.071-1.351 3.724-1.058 4.765-2.409 1.261-4.567 3.724-9.883 6.715-13.863-0.396-4.641 4.355-4.112 3.534-9.076 2.58-2.762 5.365-5.17 6.363-9.531 7.668-7.241 13.899-15.89 21.699-22.998 3.181-4.025 4.53-9.502 7.58-13.423 0.66-0.882 1.994-1.498 2.742-2.379 3.944-5.082 8.871-8.68 13.459-13.1 0-1.043 0-2.115 0-3.187 1.569-1.954 3.959-3.084 4.37-6.315 3.753-1.675 6.173-5.14 9.442-7.534 3.123-2.291 6.993-3.539 9.896-6.345 6.378-4.156 13.723-7.328 18.943-12.659 0.983-0.235 1.861-0.558 3.211-0.397 2.536-3.51 5.791-6.344 11.070-7.108 1.685-3.495 5.19-5.067 9.089-6.359 5.366-6.388 13.020-10.471 18.635-16.595 0.337-16.096-10.835-21.368-17.433-31.325 1.569-2.394 2.493-5.389 5.147-6.726 3.020 0.822 3.534 2.1 6.289 1.997 2.478-0.147 3.9-2.35 5.997-1.997 1.774 0.293 2.389 3.084 4.707 3.553 2.185 0.455 2.389-0.647 5.117-0.396 5.807 5.346 10.645 13.144 20.175 13.481 1.481 0.763 0.543 3.921 1.95 4.743 1.993-0.25 2.375-3.010 4.795-1.586-0.498 4.464 1.055 10.368 0 16.243zM278.453 314.233c-0.469 1.689-0.557 4.303-1.159 6.741-0.498 2.085-1.745 4.289-2.008 5.948-0.293 1.924 0.454 4.405 0 6.329-0.367 1.734-2.859 4.039-3.137 5.155-0.411 1.439 0.322 3.421 0 5.522-0.411 2.321-2.699 4.391-3.197 6.741-1.187 5.933 1.012 11.866-0.411 16.243-0.865 2.938-4.135 3.76-2.317 6.345 5.806 3.055 9.868-2.145 14.589-2.776 0.836-0.925 1.729-1.748 2.419-2.791 7.932-1.293 10.248-9.325 18.547-6.726 3.606 1.16 8.049 9.149 11.465 9.928 4.34 0.984 6.833-3.26 10.337-4.377 0.176-3.025 1.687-4.846 3.108-6.726-0.117-4.964 2.185-8.694 4.355-11.896 2.712-3.936 5.908-7.769 8.723-11.485-0.807-7.593 4.546-12.673 2.565-19.429-15.248 6.712-30.232 6.256-38.164-2.643-5.366-5.963-6.613-14.643-4.354-24.115-0.132-0.029-0.235-0.073-0.366-0.161-1.613-0.925-2.303-2.57-3.622-3.157-0.337-0.162-1.789 0.132-2.361 0-2.419-0.529-3.87-2.218-5.147-1.998-5.777 1.058-1.173 11.925-3.152 18.226-1.129 3.657-5.527 7.094-6.715 11.103z" />
<glyph unicode="&#xe807;" d="M7.83 214.43c2.317-0.286-7.83-23.001-7.83-34.243s4.699-52.625 4.699-52.625c0 0 6.786-5.11 12.529-5.11 5.742 0 8.353-0.504 8.353-0.504 0 0 6.258-8.176 16.183-8.176 9.911 0 21.925 0 21.925 0 0 0 6.78 3.067 8.868 5.11 2.088 2.044 62.123-3.065 108.577-2.043 46.461 1.022 71.512 3.065 71.512 3.065 0 0 1.565-6.649 6.264-10.22 4.699-3.583 5.743-4.606 12.007-4.606 6.264 0 28.705-2.044 33.925-0.504 5.221 1.526 16.183 8.176 19.837 18.9 3.661 10.738 3.661 10.738 3.661 10.738l111.702 15.834c0 0 2.088-4.592 5.743-8.693 3.654-4.088 6.786-8.163 17.227-8.163 10.441 0 21.397-1.54 27.661 2.044 6.265 3.57 12.007 15.834 12.007 15.834 0 0 7.83-2.562 8.346 1.526 0.529 4.088 1.573 24.023 0.529 30.659-1.044 6.649-3.654 33.726-7.309 45.485-3.647 11.746-8.875 19.404-12.007 22.988-3.125 3.57-6.265 19.921-8.875 27.593-2.61 7.659-3.647 6.118-8.875 9.702-5.214 3.57-12.007 12.264-12.007 12.264 0 0-0.515 0.518 4.176 5.613 4.699 5.123 3.132 7.672 3.132 7.672 0 0 7.837-3.584 11.485 2.548 3.654 6.132 5.75 8.694 2.611 14.307-3.132 5.628-3.132 5.628-3.132 5.628l-91.342-4.088c0 0-42.285 4.088-61.071 5.11-18.793 1.023-38.631 1.526-38.631 1.526 0 0 2.603 3.584-4.176 4.088-6.793 0.517-34.977 0.517-40.197-1.022-5.22-1.526-20.359-3.57-18.271-6.636 2.088-3.067-34.969-3.584-43.844-9.198-8.875-5.627-48.542-31.177-48.542-31.177l-2.611-2.044c0 0-1.044 2.561-5.749-0.504-4.691-3.067-9.396-12.264-9.396-12.264l-14.088-10.22c0 0-21.404-4.592-37.587-10.219-16.176-5.615-26.617-10.724-26.617-10.724 0 0-17.233-2.044-22.97-7.155-5.735-5.109-12.007-27.593-7.83-28.098z" />
<glyph unicode="&#xe808;" d="M511.818 237.446c-0.594 2.953-5.805 4.14-5.805 4.14s-16.822 5.446-24.305 7.939c-7.453 2.493-55.794 17.761-62.803 19.66-6.978 1.899-21.439 5.565-34.712 8.755-13.288 3.206-62.699 21.916-62.699 21.916l0.357 1.187c0 0 1.781 1.069 2.479 1.529 0.728 0.489 1.559 1.305 0.371 4.629-1.188 3.324-7.111 1.306-7.111 1.306l-4.974-1.187c0 0-1.544 1.781-3.088 2.611-1.544 0.831-2.361 0.238-2.361 0.238 0 0-2.493 0.949-2.851 1.409-0.356 0.475-2.375 0.475-2.375 0.475l-3.549-0.475c0 0-0.356 1.543-1.781 3.68-1.425 2.137-4.038 6.751-4.855 8.176-0.831 1.424-5.092 2.596-6.993 3.309-1.9 0.712-5.329 3.442-6.636 4.273-1.307 0.817-3.549 2.241-4.974 2.359-1.425 0.119-4.974 3.665-4.974 3.665 0 0-5.226 4.392-7.111 4.392-1.901 0-3.325-1.187-3.325-1.187 0 0-7.706 2.255-10.423 3.324-2.731 1.054-13.273 8.399-13.273 8.399 0 0-12.932 7.107-15.887 8.769-2.97 1.663-14.343 6.975-14.343 6.975 0 0-8.879 4.036-14.327 5.223-5.449 1.186-20.028 8.65-22.998 10.653-2.954 2.018-6.042 6.41-6.042 6.41h2.969c0 0 5.672-0.371 7.334 0.697 1.678 1.069 0.951 4.392 0.951 5.683 0 1.305 0.489 3.442 0.846 4.392 0.356 0.935 2.004 0.356 2.836 0.831 0.831 0.474 0.238 2.715 0 3.309-0.238 0.594 0 1.424 0 1.899 0 0.475 0.831 0.475 1.425 0.594 0.579 0.104 1.173 1.647 1.054 2.715-0.119 1.068 0.356 5.089 0.356 5.089 0 0 1.901-0.594 2.851-0.594 0.935 0 1.767 0.594 2.375 1.424 0.594 0.831 0.238 3.918 0.238 3.918 0 0 6.147-1.187 9.829 0.223 3.681 1.439 4.855 4.511 5.092 8.651 0.238 4.154-3.548 6.632-3.548 6.632 0 0-7.706 5.921-8.418 6.633-0.713 0.712-0.238 4.155 0 6.395 0.238 2.255-0.356 6.514-1.648 11.144-1.306 4.614-5.939 8.991-8.774 11.365-2.851 2.359-8.893 6.989-23.829 8.636-14.936 1.662-23.458-2.597-29.753-7.33-6.266-4.733-8.745-11.618-8.983-13.028-0.237-1.424 0.475-2.373 0.475-2.373 0 0-0.951-2.375-1.425-4.022-0.49-1.661-1.306-7.938-1.306-7.938 0 0-0.237-0.712-1.070-2.018-0.831-1.305-0.356-8.28-0.356-8.28l1.069 0.222c0 0 0.029-0.356 0.194-2.908 0.118-1.929 0.965-3.769 1.365-4.54 0.133-0.253 0.222-0.387 0.222-0.387 0 0-2.628 0.267-4.038 0.267-1.425 0-8.775-1.187-11.847-2.611-3.089-1.425-9.963-6.395-11.863-7.82-1.885-1.424-6.859-8.532-7.572-9.704-0.713-1.187-7.349-12.316-8.537-15.165-1.188-2.849-3.073-11.128-3.073-12.553 0-1.425-0.95-16.115-0.95-16.812 0-0.712-1.188-25.595-1.188-27.243 0-1.661 1.188-20.135 1.663-21.798 0.475-1.661 0.712-6.395 2.138-8.769 1.41-2.359-0.237-3.784-0.237-4.971 0-1.186-1.663-9.941-0.951-15.149 0.713-5.208 4.024-4.986 4.024-4.986l10.185-8.755c0 0-1.648-4.986-1.885-9.244s-2.375-21.56-2.375-24.394c0-2.85 1.662-7.345 2.85-9.482 1.173-2.123 1.648-6.395 2.836-10.179 1.187-3.798 10.199-15.639 10.199-15.639 0 0 5.686-7.82 8.523-9.705 2.85-1.899 6.399-7.345 9.012-8.057 2.599-0.712 15.174-9.244 15.174-9.244 0 0 1.425-11.366 1.425-14.438 0-3.087 1.885-13.502 3.073-15.877 1.188-2.375-0.238-8.769 0.951-10.891 1.188-2.137 0.697-6.395 0-8.769-0.713-2.373-1.662-14.214-1.662-14.214 0 0-10.898-5.445-12.561-6.633-1.663-1.172-16.124-10.891-21.335-12.553-5.211-1.647-4.736-3.546-6.162-4.496-1.425-0.95-10.185-4.971-12.070-5.445-1.915-0.475-9.249-4.749-11.625-4.749-2.361 0-8.538-2.834-9.71-4.259-1.187-1.424-4.514-3.071-7.364-2.849-2.836 0.238-4.498-0.697-6.637-2.359-2.123-1.661-8.537 0.46-10.422 1.187-1.886 0.712-11.373 2.834-11.373 2.834l-2.851-1.661c0 0-5.924 0.238-7.349 0.95-1.41 0.712-4.498 0.238-6.636-1.409-2.123-1.661-2.599-11.381-2.599-15.165 0-3.798 3.785-12.315 5.197-14.927 1.44-2.596 4.037-9.466 4.29-11.603 0.223-2.137 0-17.524-0.253-26.531-0.223-8.992 6.177-19.423 10.2-24.157 4.009-4.733 9.249-1.187 12.071 0.95 2.85 2.123 2.627 5.683 2.627 8.295 0 2.596 0.936 7.567 1.648 9.229 0.713 1.663 0 4.496-0.95 5.683-0.936 1.187 0.237 4.259 0.237 6.633 0 2.373 7.364 8.294 8.775 10.669 1.425 2.359 5.211 9.704 6.399 11.128 1.187 1.425 4.988 2.359 7.824 1.885 2.836-0.475 6.637 2.137 7.587 3.324 0.936 1.187 3.787 3.546 8.3 4.495 4.498 0.95 32.471 10.195 32.471 10.195l20.147 8.279c0 0 35.305 17.064 43.353 19.676 8.061 2.596 8.537 7.092 9.725 13.013 1.188 5.92 5.211 24.171 6.161 23.459 0.951-0.713 4.023-5.683 4.023-5.683 0 0 3.341-11.841 4.989-15.165 1.662-3.324 1.662-8.057 4.261-10.891 2.613-2.849 7.587-9.719 7.587-9.719 0 0 19.197-29.839 22.76-35.522 3.534-5.683 9.947-14.69 9.947-14.69 0 0 1.411-2.849 1.886-4.733 0.475-1.9 3.801-9.957 5.939-12.568 2.123-2.597 5.671-4.022 5.671-4.022l-3.296-9.942c0 0-2.137-13.502-2.137-17.063 0-3.546 4.974-2.36 11.61-3.784 6.636-1.425 12.798-0.475 14.921 0.238 2.153 0.697 6.177 0.237 11.625 0 5.449-0.238 22.745-2.375 28.209-2.375 5.449 0 23.221 1.187 27.022 2.849 3.786 1.661 8.285 6.158 8.522 10.654 0.237 4.511-3.549 7.702-6.399 8.769-2.851 1.068-14.936 2.493-18.856 2.493-3.889 0-4.603 1.409-8.863 3.19-4.276 1.78-7.483 4.615-7.483 4.615 0 0-11.016 11.723-12.426 13.147-1.425 1.425-4.989 3.562-4.989 3.562 0 0-2.836 8.517-4.261 12.435-1.425 3.917-20.623 36.591-21.692 39.795-1.053 3.19-27.897 53.655-30.049 58.981-2.123 5.327-10.245 28.415-13.556 34.336-3.326 5.935-8.417 11.737-11.016 15.283-2.613 3.546-15.173 18.829-15.173 18.829 0 0 0 2.017-0.133 3.19-0.104 1.187-0.446 4.629-0.446 4.629 0 0-2.271 9.705-2.628 11.604-0.356 1.899-1.886 6.87-1.886 8.175 0 1.306-0.356 2.241-1.306 3.19-0.951 0.95-0.713 1.543 0.357 2.968 1.069 1.41 0.712 3.309-0.357 4.021-1.069 0.712-1.9 0.475-2.257 2.849-0.356 2.359-0.238 1.885-1.411 2.953-1.202 1.069 0.104 2.018 0.104 4.036 0 2.018-0.104 3.428-1.306 6.395-1.173 2.953-2.479 2.478-3.549 3.19-1.069 0.712 0.238 0.712 1.425 2.018 1.173 1.306 0.817 3.428 0.594 5.209-0.222 1.78-2.137 1.78-2.969 3.087-0.832 1.291 0 4.259 0 4.259 0 0 3.786 4.733 4.632 5.802 0.831 1.068 3.073 4.614 5.093 7.582 2.004 2.967 4.379 10.178 4.379 10.178 0 0 2.494-1.765 3.327-2.359 0.831-0.593 3.667-3.679 4.379-4.496 0.713-0.831 5.568-6.291 6.875-7.701 1.306-1.424 2.836-2.493 5.568-2.731 2.731-0.237 4.869 0.475 4.869 0.475 0 0 13.511-1.187 20.726-1.068 7.231 0.118 20.028 1.661 21.81 2.017 1.767 0.356 7.468 2.968 8.404 3.19 0.95 0.238 5.211 0.119 7.245 0.119 2.005 0 5.924 1.187 6.384 0.831 0.475-0.356 1.425-1.291 1.915-1.291 0.461 0 8.76 1.765 10.899 2.241 2.123 0.475 3.889-0.949 7.111-0.949 3.192 0 6.503 2.967 7.454 2.967 0.95 0 6.043 1.069 7.587 1.069 1.544 0 2.954 1.41 3.311 2.24 0.356 0.831 0.831 4.274 0.831 4.274 0 0 30.094-11.381 44.081-16.707 13.986-5.327 30.11-12.672 30.11-12.672 0 0 6.636-3.902 9.13-4.733 2.48-0.831 18.247-7.463 18.247-7.463l71.221-26.294c0 0 6.637-2.478 8.893-2.478 2.243 0 4.38 2.359 6.265 4.97 1.901 2.597 2.865 8.755 2.257 11.722zM282.24 298.43c0 0-3.133-0.489-3.474-0.579-0.327-0.089-5.048-0.415-6.043-0.415-0.98 0-5.701 0.089-8.671 0.252-2.984 0.163-5.791 1.083-9.012 2.063-3.221 0.994-9.265 1.499-9.755 1.573-0.505 0.089-5.048 1.483-6.043 1.661-0.994 0.163-4.305 0.49-6.443 1.394-2.168 0.92-4.974 1.736-4.974 1.736l1.499 1.989c0 0 2.643 4.54 3.475 6.44 0.817 1.913-1.084 3.887-2.168 5.46-1.069 1.573-5.939 8.68-5.939 8.68l2.064-0.327c0 0 7.853-1.483 10.333-2.226 2.48-0.742 10.587-2.24 12.234-2.403 1.662-0.164 3.979-1.247 5.048-1.811 1.084-0.593 2.732-1.246 4.306-2.819 1.558-1.573 3.801-3.145 3.801-3.145 0 0-0.743-1.574-0.743-3.057 0-1.484 1.485-4.63 1.485-4.63 0 0 3.637-0.905 3.237-1.647-0.416-0.757 0.327-1.484 0.653-1.825 0.327-0.341 2.316-1.81 3.058-2.315 0.743-0.489 2.553 0.327 2.553 0.327 0 0 0.505-0.563 0.743-0.816 0.253-0.252 3.979-1.158 3.979-1.158 0 0 0.757-0.252 1.084-0.905 0.327-0.668 3.964-0.742 3.964-0.742l-0.253-0.757z" />
<glyph unicode="&#xe809;" d="M459.611 244.938c-0.45 0.027-0.914 0.054-1.364 0.067l1.037 2.244c0 0 4.611 4.57 10.069 10.396 5.444 5.813 1.255 7.476 3.765 7.476 2.524 0 9.237 4.569 9.237 4.569h4.611l7.136-0.824c0 0 1.678-2.907 4.188-3.326 2.524-0.419 3.357 2.082 3.357 3.744 0 1.649-3.779 2.488-3.779 2.488l-13.002 2.907c0 0 0.423 5.827-0.833 8.733-1.255 2.907-11.747 5.813-16.358 7.071-4.611 1.244-6.712-3.326-6.712-3.326 0 0-13.002 0-15.95 0.406-1.555 0.229-6.767 0.798-11.324 1.284v0.378l-18.869 13.303c0 0 1.678 5.407 1.678 10.396 0 4.988-5.034 14.965-5.034 14.965l9.223 6.651 7.558 7.057 4.189-1.244 7.558 8.314-2.947 3.326 5.034 8.313 13.848-1.662-2.933 9.138-4.202 6.651c0 0-9.646 27.429-24.75 31.998-8.267 2.514-24.749 2.501-35.651-3.731-10.914-6.232-20.56-29.511-20.56-29.511l-4.189-2.501c0 0-9.237 4.164-12.171 5.407-2.933 1.244-26.004 5.408-29.361 6.233-3.356 0.837-18.459-6.233-28.105-8.72-9.647-2.501-24.75-12.897-35.228-21.616-4.652-3.88-9.359-9.625-10.492-14.547-0.463-2.001-0.286-2.946-0.423-4.988-0.054-0.96-1.829-4.989 0.845-4.164 3.166 0.987 1.133-5.272 1.255-8.314 0.423-10.382 21.816-23.685 21.816-23.685 0 0-5.88-15.384-10.492-20.373-2.265-2.446-4.829-6.393-6.863-9.787l-1.951 0.229c0 0-14.68-12.464-14.257-16.209 0.423-3.731 0-8.719 0-8.719l0.423-4.988c0 0-18.882 4.149-25.595 8.314-6.713 4.15-4.611 7.476-10.901 6.232-6.29-1.257-10.492-8.314-15.104-12.883-4.611-4.583 4.025-7.489 4.025-7.489 0 0-30.629-0.418-45.309 2.907-14.68 3.326-28.515 5.827-28.515 5.827 0 0-18.883 12.464-19.715 9.558-0.846-2.906 3.356-14.127 5.034-17.453 1.665-3.326 9.223-12.478 9.223-12.478l-0.219-1.623c-7.599 0.392-15.404 0.068-23.317-1.082-55.175-7.962-94.331-52.209-87.468-98.807 6.849-46.585 57.139-77.907 112.299-69.931 24.804 3.582 46.374 14.505 61.969 29.659l21.638-5.353c0 0 0 0 3.779-2.488 3.779-2.487 39.853-3.325 39.853-3.325l4.188 3.325c0 0 6.29-7.070 8.391-9.139 2.101-2.082 9.645-5.407 17.204-5.407 7.545 0 6.289 7.894 5.867 11.22-0.423 3.325-5.457 8.733-5.457 8.733l0.846 6.232 5.457 0.825c0 0 33.972 2.501 42.363 4.582 8.39 2.069 11.747 7.476 11.747 7.476 0 0 35.651 9.558 38.583 11.639 2.947 2.082 5.881 5.813 8.813 14.546 2.933 8.733 0 18.291-3.356 22.441-3.356 4.163-8.39 12.883-13.848 17.871-5.444 4.989-13.412 17.047-13.412 17.047 0 0 27.26 24.522 35.228 31.998 7.967 7.49 17.204 18.709 17.204 18.709 0 0 7.968-11.639 2.088-20.791-5.867-9.139-13.002-29.092-17.615-45.72-4.611-16.615 3.779-13.289 7.559-13.289 0.245 0 0.49-0.014 0.723-0.041-0.041-0.514-0.082-1.027-0.123-1.541-4.121-56.562 19.115-104.323 51.913-106.661 32.798-2.353 62.719 41.597 66.839 98.172 4.133 56.562-19.115 104.322-51.913 106.675zM105.112 80.795c-35.35-5.11-67.563 14.952-71.955 44.801-4.393 29.863 20.697 58.197 56.047 63.308 6.317 0.919 12.525 1.014 18.514 0.405l-1.815-13.127-9.645-2.082-4.189-8.733-9.237-10.382-2.933-9.152 5.88-7.476 7.545-3.745-7.968-4.569-31.038 3.325-5.457-6.651h-5.457c0 0-2.933-3.325-2.933-5.827 0-2.487-0.423-7.475-0.423-7.475l5.035-1.244 2.524-9.152 81.37-14.546 0.915 0.432c-7.382-3.974-15.731-6.813-24.777-8.111zM296.939 319.573l-7.122 8.314c0 0 6.713 2.069 10.478 3.325 3.779 1.244 7.135 1.244 7.135 1.244l-10.492-12.883zM420.685 184.077c6.154 12.464 13.712 24.522 13.712 24.522l11.46-59.022-10.069-0.839-19.292 20.791c0 0 1.214 8.503 4.189 14.546zM411.599 141.683c0.136 3.596 1.678 13.573 1.678 13.573l10.341-10.531c0.709-15.235-11.597-8.165-11.597-8.165s-0.56 1.514-0.423 5.123zM491.195 137.248c-3.37-46.301-23.508-77.353-45.337-75.785-18.882 1.352-32.908 25.361-34.081 63.185 2.346-2.785 4.502-4.772 5.975-5.002 5.457-0.825 13.849 11.22 13.849 11.22 0 0 8.39-12.883 10.478-14.965 2.101-2.068 11.324 5.407 11.324 5.407l17.205 17.047c0 0 0.423 7.057 0 9.977-0.423 2.906-0.846 5.813-4.611 7.894-3.779 2.069-9.442-8.111-11.12-3.541-1.678 4.583-10.696 61.726-10.696 61.726l3.465 7.531c3.303 1.514 6.713 2.217 10.151 1.974 21.816-1.568 36.782-40.367 33.399-86.668z" />
<glyph unicode="&#xe80a;" d="M502.179 167.608c-21.228 46.567-70.375 70.513-111.867 55.541 0.447 2.753 1.565 4.843 1.995 7.631-15.137-2.77-28.573-12.78-38.723-16.979-1.582 10.792-5.075 19.782-7.5 29.742 21.089 17.862 47.117 34.925 70.908 49.898 6.967 4.385 20.419 8.463 19.335 19.085-30.827 8.531-78.701 3.688-110.68 0-11.319 14.633-19.628 32.291-47.307 30.795-4.885-1.887-7.431-6.101-9.84-10.452-3.423-2.736-6.296-6.255-8.447-10.299-4.661 1.903-9.495 2.839-14.243 2.618-7.535 13.069-19.181 21.788-31.171 23.963-6.726 7.121-16.033 16.672-24.393 22.841-3.165 2.328-6.898 1.377-13.968 4.265-5.97 2.363-8.98 7.121-17.22 6.356-5.59-0.544-8.549-5.268-15-6.356-4.679 2.787-11.319 3.671-17.186 5.303-3.905 11.031-11.302 18.627-20.867 24.048-0.257 0.171-0.516 0.323-0.791 0.476-0.361 0.171-0.705 0.375-1.049 0.527-0.326 0.204-0.688 0.373-1.014 0.561-3.063 1.546-6.261 2.906-9.582 4.113-0.93 0-1.859 0-2.769 0-7.811 1.411-16.016 0.765-23.86-2.226-23.292-9.042-34.508-35.775-24.995-59.755 2.65-6.815 7.948-15.67 14.725-24.677-9.393-18.813-19.869-31.764-23.309-47.128-0.138 4.418-0.722 0.221-2.167 0-0.86-6.101-7.793-11.098-5.333-16.962-10.7-3.569-4.782-21.549 3.183-26.563-2.563-7.461-4.369-15.279 1.067-20.173-8.223-5.676-14.863-12.899-21.469-20.156-1.117-4.69 3.647-3.501 3.2-7.427-3.457-5.319-6.055-10.978-7.707-17.335-6.399-20.428-5.574-45.173 3.887-69.238 18.717-47.331 63.976-74.099 101.047-59.789 22.467 8.651 36.778 30.353 40.443 56.611 2.925-3.247 5.867-6.526 8.481-10.062 31.102-9.211 71.391-8.667 113.897-10.622 37.037-1.683 69.997-7.784 82.21 12.729 24.411-41.213 72.026-60.281 111.231-42.861 42.456 18.882 58.971 73.504 36.848 121.957z" />
</font>
</defs>
</svg>
